fg603603
武林盟主

[2017] [日本] [喜剧] [BD-1080P] 雪耻女孩 Revenge.Girl.2017.JAPANESE.1080p.BluRay.x264.DTS-WiKi 9.02GB

-->

帖子完整标题:雪耻女孩 Revenge.Girl.2017.JAPANESE.1080p.BluRay.x264.DTS-WiKi 9.02GB



◎译  名 雪耻女孩/Revenge Girl/复仇女孩/雪耻少女
◎片  名 リベンジgirl
◎年  代 2017
◎产  地 日本
◎类  别 喜剧 / 动作 / 爱情
◎语  言 日语
◎上映日期 2017-12-23(日本)
◎IMDb评分 5.3/10 from 151 users
◎IMDb链接 https://www.imdb.com/title/tt7222296/
◎豆瓣评分 5.3/10 from 1682 users
◎豆瓣链接 https://movie.douban.com/subject/27107141/
◎片  长 110分钟
◎导  演 三木康一郎 K?ichir? Miki
◎编  剧 吉田惠里香 Erika Yoshida
◎主  演 桐谷美玲 Mirei Kiritani
      铃木伸之 Nobuyuki Suzuki
      清原翔 Sh? Kiyohara
      马场富美加 Fumika Baba
      佐津川爱美 Aimi Satsukawa
      大和田伸也 Shin'ya ?wada
      齐藤由贵 Yuki Sait?
      竹内爱纱 Aisa Takeuchi
      西原爱夏 Manaka Nishihara
      兼高主税 Chikara Kanetaka

◎标  签 日本 | 爱情 | 喜剧 | 2017 | 剧情 | 青春 | 政治 | 映画

◎简  介

  宝石美辉(桐谷美玲 饰)人如其名,她靓丽时尚,头脑聪颖,就读于名门学府东京大学的她担任着学生会主席的重要职务,未来更是一片光明,充满希望。然而这个看似完美无瑕的女孩却有着致命的性格缺陷,她极度自我为中心,其他人乃至恋人都只不过是她的从属与附庸。如此极端的性格,往往在伤害了他人之后还全然不觉。所以可以想见,当美辉的爱情遭遇挫折之时,这是多么令她倍感耻辱的事情。
  
  为此,她决定赌上人生去迎接更大的挑战,那就是成为日本首位女性内阁总理大臣,以完成对人生和爱情的复仇……

Video
ID : 1
Format : AVC
Format/Info : Advanced Video Codec
Format profile : [email protected]
Format settings : CABAC / 4 Ref Frames
Format settings, CABAC : Yes
Format settings, ReFrames : 4 frames
Codec ID : V_MPEG4/ISO/AVC
Duration : 1 h 50 min
Bit rate : 10.1 Mb/s
Width : 1 920 pixels
Height : 1 038 pixels
Display aspect ratio : 1.85:1
Frame rate mode : Constant
Frame rate : 23.976 (24000/1001/189150) FPS
Color space : YUV
Chroma subsampling : 4:2:0
Bit depth : 8 bits
Scan type : Progressive
Bits/(Pixel*Frame) : 0.212
Stream size : 7.84 GiB (87%)
Title : x264_L4.1 @ 10,111 Kbps (crf 17)
Writing library : x264 core 129 r2245+704+36 8e61944 tMod+MixAQ [[email protected]:2:0 X86_64]
Encoding settings : cabac=1 / ref=4 / deblock=1:-3:-3 / analyse=0x3:0x133 / me=umh / subme=11 / psy=1 / fade_compensate=0.00 / psy_rd=1.05:0.10 / mixed_ref=1 / me_range=64 / chroma_me=1 / trellis=2 / 8x8dct=1 / cqm=0 / deadzone=21,11 / fast_pskip=0 / chroma_qp_offset=-3 / threads=12 / lookahead_threads=2 / sliced_threads=0 / nr=0 / decimate=1 / interlaced=0 / bluray_compat=0 / constrained_intra=0 / fgo=0 / bframes=10 / b_pyramid=2 / b_adapt=2 / b_bias=0 / direct=3 / weightb=1 / open_gop=0 / weightp=2 / keyint=250 / keyint_min=23 / scenecut=40 / intra_refresh=0 / rc=crf / mbtree=0 / crf=17.0000 / qcomp=0.70 / qpmin=0 / qpmax=69 / qpstep=4 / ip_ratio=1.25 / pb_ratio=1.15 / aq=1 / aq-strength=0.80 / aq-sensitivity=10.00 / aq-ifactor=1.00 / aq-pfactor=1.00 / aq-bfactor=1.00 / aq2=0
Language : Japanese
Default : Yes
Forced : No

Audio
ID : 2
Format : DTS
Format/Info : Digital Theater Systems
Codec ID : A_DTS
Duration : 1 h 50 min
Bit rate mode : Constant
Bit rate : 1 509 kb/s
Channel(s) : 6 channels
Channel positions : Front: L C R, Side: L R, LFE
Sampling rate : 48.0 kHz
Frame rate : 93.750 FPS (512 SPF)
Bit depth : 24 bits
Compression mode : Lossy
Stream size : 1.17 GiB (13%)
Title : Japanese DTS 5.1 @ 1,509 Kbps
Language : Japanese
Default : Yes
Forced : No

Text
ID : 3
Format : ASS
Codec ID : S_TEXT/ASS
Codec ID/Info : Advanced Sub Station Alpha
Duration : 1 h 47 min
Bit rate : 86 b/s
Count of elements : 1295
Compression mode : Lossless
Stream size : 68.4 KiB (0%)
Title : Traditional Chinese (SUBPIG)
Language : Chinese
Default : Yes
Forced : No

Menu
00:00:00.000 : :00:00:00.000
00:21:57.525 : :00:21:57.525
00:36:29.229 : :00:36:29.229
00:50:19.850 : :00:50:19.850
01:09:22.700 : :01:09:22.700
01:30:15.201 : :01:30:15.201





1 个附件 售价 大小 下载 时间

Revenge.Girl.2017.JAPANESE.1080p.BluRay.x264.DTS-WiKi.zip 0 金币 91.64K 217 次 1月前

#1楼
发帖时间:2020-09-20 14:47:13   |   回复数:1
kola13
武林盟主
感谢分享
1月前 #2楼
游客组