fg603603
武林盟主

[2018] [日本] [爱情] [BD-1080P] 今夜在浪漫剧场 Color.Me.True.2018.JAPANESE.1080p.BluRay.x264.DTS-WiKi 9.76GB

-->

帖子完整标题:今夜在浪漫剧场 Color.Me.True.2018.JAPANESE.1080p.BluRay.x264.DTS-WiKi 9.76GB



◎译  名 今夜在浪漫剧场/Color Me True/Tonight, at the Movies/今夜,在浪漫剧场与你相遇(台)/今夜,在罗曼剧场/星光奇遇结良缘(港)
◎片  名 今夜、ロマンス劇場で
◎年  代 2018
◎产  地 日本
◎类  别 爱情 / 奇幻
◎语  言 日语
◎上映日期 2018-02-10(日本) / 2019-02-14(中国大陆)
◎IMDb评分 7.2/10 from 699 users
◎IMDb链接 https://www.imdb.com/title/tt6908760/
◎豆瓣评分 7.2/10 from 29726 users
◎豆瓣链接 https://movie.douban.com/subject/27039378/
◎片  长 109分钟
◎导  演 武内英树 Hideki Takeuchi
◎编  剧 宇山佳佑 Keisuke Uyama
◎主  演 绫濑遥 Haruka Ayase
      坂口健太郎 Kentaro Sakaguchi
      本田翼 Tsubasa Honda
      北村一辉 Kazuki Kitamura
      中尾明庆 Akinobu Nakao
      石桥杏奈 Ishibashi Anna
      柄本明 Akira Emoto
      加藤刚 Go Kato

◎标  签 日本 | 爱情 | 纯爱 | 浪漫 | 奇幻 | 感动 | 穿越 | 2018

◎简  介

  大电影制片厂即将步入黄昏时代之际,在某电影厂担任副导演的青年健司(坂口健太郎 饰)经历了人生刻骨铭心的邂逅。此前他在某座电影院内发现一卷被废弃的胶片,胶片中的电影女主角男人头公主(绫濑遥 饰)令他神魂颠倒,痴迷非常。当得知这卷胶片即将卖给他人时,健司无比怅然。最后一次的放映过程中,令人意想不到的事情发生了,那位公主竟然从大银幕中走了出来。在此之后,刁蛮公主将健司视为仆人,暂时徘徊人间,体会这个多彩的世界。
  
  与此同时,健司得到了可以升为导演的机会,为此他以自己和公主为蓝本努力撰写剧本。在这一过程中,他渐渐喜欢上了公主,可是却也得知公主身上一个令他怅然的秘密……

Video
ID : 1
Format : AVC
Format/Info : Advanced Video Codec
Format profile : [email protected]
Format settings : CABAC / 4 Ref Frames
Format settings, CABAC : Yes
Format settings, ReFrames : 4 frames
Codec ID : V_MPEG4/ISO/AVC
Duration : 1 h 48 min
Bit rate : 11.3 Mb/s
Width : 1 920 pixels
Height : 1 038 pixels
Display aspect ratio : 1.85:1
Frame rate mode : Constant
Frame rate : 23.976 (24000/1001/189150) FPS
Color space : YUV
Chroma subsampling : 4:2:0
Bit depth : 8 bits
Scan type : Progressive
Bits/(Pixel*Frame) : 0.237
Stream size : 8.60 GiB (88%)
Writing library : x264 core 129 r2245+704+36 8e61944 tMod+MixAQ [[email protected]:2:0 X86_64]
Encoding settings : cabac=1 / ref=4 / deblock=1:-3:-3 / analyse=0x3:0x133 / me=umh / subme=11 / psy=1 / fade_compensate=0.00 / psy_rd=1.05:0.10 / mixed_ref=1 / me_range=64 / chroma_me=1 / trellis=2 / 8x8dct=1 / cqm=0 / deadzone=21,11 / fast_pskip=0 / chroma_qp_offset=-3 / threads=18 / lookahead_threads=3 / sliced_threads=0 / nr=0 / decimate=0 / interlaced=0 / bluray_compat=0 / constrained_intra=0 / fgo=0 / bframes=10 / b_pyramid=2 / b_adapt=2 / b_bias=0 / direct=3 / weightb=1 / open_gop=0 / weightp=2 / keyint=250 / keyint_min=23 / scenecut=40 / intra_refresh=0 / rc=2pass / mbtree=0 / bitrate=11348 / ratetol=1.0 / qcomp=0.70 / qpmin=0 / qpmax=69 / qpstep=4 / cplxblur=20.0 / qblur=0.5 / ip_ratio=1.40 / pb_ratio=1.30 / aq=1 / aq-strength=0.80 / aq-sensitivity=10.00 / aq-ifactor=1.00 / aq-pfactor=1.00 / aq-bfactor=1.00 / aq2=0
Language : Japanese
Default : Yes
Forced : No

Audio
ID : 2
Format : DTS
Format/Info : Digital Theater Systems
Codec ID : A_DTS
Duration : 1 h 48 min
Bit rate mode : Constant
Bit rate : 1 509 kb/s
Channel(s) : 6 channels
Channel positions : Front: L C R, Side: L R, LFE
Sampling rate : 48.0 kHz
Frame rate : 93.750 FPS (512 SPF)
Bit depth : 24 bits
Compression mode : Lossy
Stream size : 1.14 GiB (12%)
Language : Japanese
Default : Yes
Forced : No

Text #1
ID : 3
Format : ASS
Codec ID : S_TEXT/ASS
Codec ID/Info : Advanced Sub Station Alpha
Duration : 1 h 48 min
Bit rate : 64 b/s
Count of elements : 1259
Compression mode : Lossless
Stream size : 51.0 KiB (0%)
Title : Simplified
Language : Chinese
Default : Yes
Forced : No

Text #2
ID : 4
Format : ASS
Codec ID : S_TEXT/ASS
Codec ID/Info : Advanced Sub Station Alpha
Duration : 1 h 48 min
Bit rate : 64 b/s
Count of elements : 1259
Compression mode : Lossless
Stream size : 51.0 KiB (0%)
Title : Traditional
Language : Chinese
Default : No
Forced : No

Menu
00:00:00.000 : en:00:00:00.000
00:05:46.763 : en:00:05:46.763
00:07:53.973 : en:00:07:53.973
00:12:36.797 : en:00:12:36.797
00:19:12.109 : en:00:19:12.109
00:25:16.139 : en:00:25:16.139
00:32:23.066 : en:00:32:23.066
00:34:24.312 : en:00:34:24.312
00:41:30.196 : en:00:41:30.196
00:51:34.674 : en:00:51:34.674
00:54:20.924 : en:00:54:20.924
01:01:38.444 : en:01:01:38.444
01:07:39.055 : en:01:07:39.055
01:12:46.820 : en:01:12:46.820
01:16:25.706 : en:01:16:25.706
01:26:45.033 : en:01:26:45.033
01:34:42.385 : en:01:34:42.385
01:40:53.881 : en:01:40:53.881
01:44:17.251 : en:01:44:17.251





1 个附件 售价 大小 下载 时间

Color.Me.True.2018.JAPANESE.1080p.BluRay.x264.DTS-WiKi.zip 0 金币 99.04K 567 次 1月前

#1楼
发帖时间:2020-09-20 14:38:00   |   回复数:0
游客组