squallzhao
武林盟主

[2018] [日本] [剧情] [BD-1080P] 恶与假面的规则 Evil.and.the.Mask.2018.JAPANESE.1080p.BluRay.x264-WiKi 8.43GB

-->

帖子完整标题:恶与假面的规则 Evil.and.the.Mask.2018.JAPANESE.1080p.BluRay.x264-WiKi 8.43GB



◎译  名 恶与假面的规则/Evil and The Mask
◎片  名 悪と仮面のルール
◎年  代 2018
◎产  地 日本
◎类  别 剧情 / 惊悚 / 犯罪
◎语  言 日语
◎上映日期 2018-01-13(日本)
◎IMDb评分 5.3/10 from 43 users
◎IMDb链接 https://www.imdb.com/title/tt6813892/
◎豆瓣评分 3.8/10 from 840 users
◎豆瓣链接 https://movie.douban.com/subject/27027372/
◎片  长 139分钟
◎导  演 中村哲平
◎编  剧 中村文则 Fuminori Nakamura / 黑岩勉 Tsutomu Kuroiwa
◎主  演 玉木宏 Hiroshi Tamaki
      新木优子 Yuko Araki
      吉泽亮 Yoshizawa Ryo
      中村达也 Tatsuya Nakamura
      柄本明 Akira Emoto
      光石研 Ken Mitsuishi

◎标  签 日本 | 玉木宏 | 日本电影 | 悬疑 | 2018 | 日影 | 新木优子 | 电影

◎简  介

  某大财团财阀之子久喜文宏,在11岁那年被父亲(村井国夫 饰)告知,他来到这个世上的目标就是要被打造成为足以给世人造成巨大灾难的极致之恶。为了让儿子完成蜕变,恶毒的父亲竟不惜玷污少年的初恋女孩香织。危机时刻,少年杀死了父亲,逃遁失踪。十几年后,长大了的文宏(玉木宏 饰)改头换面,以新谷弘一的名字展开新的生活。他千方百计找到香织(新木裕子 饰),从此逡巡在对方身边,为了保护香织不惜再度杀人。未过多久,知晓弘一过往人生的同父异母哥哥久喜干彦(仲村达也 饰)与策划颠覆日本的恐怖分子伊藤亮祐(吉泽亮 饰)勾结在一起,他们更将目标锁定在香织身上。弘一不得不与自己的过去以及黑暗的命运做个了断……
  
  本片根据芥川赏获奖作家中村文则的同名小说改编。

Video
ID : 1
Format : AVC
Format/Info : Advanced Video Codec
Format profile : [email protected]
Format settings : CABAC / 5 Ref Frames
Format settings, CABAC : Yes
Format settings, ReFrames : 5 frames
Codec ID : V_MPEG4/ISO/AVC
Duration : 2 h 19 min
Bit rate : 8 226 kb/s
Width : 1 920 pixels
Height : 804 pixels
Display aspect ratio : 2.40:1
Frame rate mode : Constant
Frame rate : 23.976 (24000/1001/189150) FPS
Color space : YUV
Chroma subsampling : 4:2:0
Bit depth : 8 bits
Scan type : Progressive
Bits/(Pixel*Frame) : 0.222
Stream size : 7.99 GiB (95%)
Title : x264_L4.1 @ 8,226 Kbps (crf 17)
Writing library : x264 core 129 r2245+704+36 8e61944 tMod+MixAQ [[email protected]:2:0 X86_64]
Encoding settings : cabac=1 / ref=5 / deblock=1:-3:-3 / analyse=0x3:0x133 / me=umh / subme=11 / psy=1 / fade_compensate=0.00 / psy_rd=1.05:0.10 / mixed_ref=1 / me_range=64 / chroma_me=1 / trellis=2 / 8x8dct=1 / cqm=0 / deadzone=21,11 / fast_pskip=0 / chroma_qp_offset=-3 / threads=12 / lookahead_threads=2 / sliced_threads=0 / nr=0 / decimate=1 / interlaced=0 / bluray_compat=0 / constrained_intra=0 / fgo=0 / bframes=10 / b_pyramid=2 / b_adapt=2 / b_bias=0 / direct=3 / weightb=1 / open_gop=0 / weightp=2 / keyint=250 / keyint_min=23 / scenecut=40 / intra_refresh=0 / rc=crf / mbtree=0 / crf=17.0000 / qcomp=0.70 / qpmin=0 / qpmax=69 / qpstep=4 / ip_ratio=1.25 / pb_ratio=1.15 / aq=1 / aq-strength=0.85 / aq-sensitivity=10.00 / aq-ifactor=1.00 / aq-pfactor=1.00 / aq-bfactor=1.00 / aq2=0
Language : Japanese
Default : Yes
Forced : No

Audio
ID : 2
Format : AC-3
Format/Info : Audio Coding 3
Codec ID : A_AC3
Duration : 2 h 19 min
Bit rate mode : Constant
Bit rate : 448 kb/s
Channel(s) : 6 channels
Channel positions : Front: L C R, Side: L R, LFE
Sampling rate : 48.0 kHz
Frame rate : 31.250 FPS (1536 SPF)
Bit depth : 16 bits
Compression mode : Lossy
Stream size : 446 MiB (5%)
Title : Japanese DD 5.1 @ 448 Kbps
Language : Japanese
Service kind : Complete Main
Default : Yes
Forced : No

Text
ID : 3
Format : ASS
Codec ID : S_TEXT/ASS
Codec ID/Info : Advanced Sub Station Alpha
Duration : 2 h 13 min
Bit rate : 70 b/s
Count of elements : 1347
Compression mode : Lossless
Stream size : 69.5 KiB (0%)
Title : Traditional Chinese (SUBPIG)
Language : Chinese
Default : Yes
Forced : No

Menu
00:00:00.000 : en:00:00:00.000
00:14:39.212 : en:00:14:39.212
00:30:25.115 : en:00:30:25.115
00:46:35.251 : en:00:46:35.251
01:05:45.150 : en:01:05:45.150
01:27:44.551 : en:01:27:44.551
01:48:21.870 : en:01:48:21.870
02:13:30.002 : en:02:13:30.002





1 个附件 售价 大小 下载 时间

Evil.and.the.Mask.2018.JAPANESE.1080p.BluRay.x264-WiKi.zip 0 金币 85.81K 182 次 1月前

#1楼
发帖时间:2020-09-20 14:34:46   |   回复数:1
kola13
武林盟主
感谢分享
1月前 #2楼
游客组