squallzhao
武林盟主

[2018] [日本] [剧情] [BD-1080P] 天才麻将少女:阿知贺篇 电影版/咲-Saki- 阿知贺篇 真人版 Saki.Achiga-hen.Episode.of.Side-A.2018.JAPANESE

-->

帖子完整标题:天才麻将少女:阿知贺篇 电影版/咲-Saki- 阿知贺篇 真人版 Saki.Achiga-hen.Episode.of.Side-A.2018.JAPANESE.1080p.BluRay.x264.DTS-WiKi 10.51GB



◎译  名 天才麻将少女:阿知贺篇 电影版/咲-Saki- 阿知贺篇 真人版
◎片  名 咲-Saki-阿知賀編 episode of side-A
◎年  代 2018
◎产  地 日本
◎类  别 剧情 / 运动
◎语  言 日语
◎上映日期 2018-01-20(日本)
◎IMDb评分 6.2/10 from 20 users
◎IMDb链接 https://www.imdb.com/title/tt7675596/
◎豆瓣评分 5.2/10 from 441 users
◎豆瓣链接 https://movie.douban.com/subject/27168720/
◎片  长 112分钟
◎导  演 小沼雄一 Y?ichi Onuma
◎编  剧 森迅史 Hayashi Mori
◎主  演 樱田日和 Hiyori Sakurada
      恒松祐里 Yuri Tsunematsu
      渡边幸爱 Koume Watanabe
      南泽奈央 Nao Minamisawa
      志田友美 Y?mi Shida
      高田里穗 Riho Takada
      冈崎纱绘 Sae Okazaki
      小仓优香 Yuka Ogura
      新井爱瞳 Manami Arai
      岩田华怜 Karen Iwata
      矢野优花 Yuuka Yano
      岩崎春果 Haruka Iwasaki
      浅川梨奈 Nana Asakawa
      志水彩乃 ano
      兰梦 RaMu
      日比美思 Mikoto Hibi
      伊藤萌萌香 Momoka It?

◎标  签 日本 | 漫画改编 | 2018 | 日本电影 | 青春 | 漫改 | 滨边美波 | 剧情

◎简  介

  濒临废部的阿知贺高中麻将部,由于自幼因麻将和相识的五位好友——高鸭稳乃(樱田日和 饰)、新子憧(伊藤萌萌香 饰)、松实玄(恒松祐里 饰)、松实宥(渡边幸爱 饰)、鹭森灼(中山莉子 饰)——的加入,而重新焕发活力。尤其是女孩们请来了曾经参加过全国大赛并被称为“阿知贺的传奇”的赤土晴绘担任指导老师后,她们的麻将水平突飞猛进,终于在时隔十年后重新带领阿知贺高中闯入全国大赛的舞台。然而全国大赛上高手如云,千里山、白系台、新道寺等麻将强校战气十足。相比之下,毫不占优势的阿知贺少女们能否在这里再次创造奇迹呢?
  
  本片根据小林立原作、五十岚亚栗作画的漫画作品改编。

Video
ID : 1
Format : AVC
Format/Info : Advanced Video Codec
Format profile : [email protected]
Format settings : CABAC / 4 Ref Frames
Format settings, CABAC : Yes
Format settings, ReFrames : 4 frames
Codec ID : V_MPEG4/ISO/AVC
Duration : 1 h 52 min
Bit rate : 11.9 Mb/s
Width : 1 920 pixels
Height : 1 036 pixels
Display aspect ratio : 1.85:1
Frame rate mode : Constant
Frame rate : 23.976 (24000/1001/189150) FPS
Color space : YUV
Chroma subsampling : 4:2:0
Bit depth : 8 bits
Scan type : Progressive
Bits/(Pixel*Frame) : 0.249
Stream size : 9.31 GiB (89%)
Writing library : x264 core 129 r2245+704+36 8e61944 tMod+MixAQ [[email protected]:2:0 X86_64]
Encoding settings : cabac=1 / ref=4 / deblock=1:-3:-3 / analyse=0x3:0x133 / me=umh / subme=11 / psy=1 / fade_compensate=0.00 / psy_rd=1.05:0.10 / mixed_ref=1 / me_range=64 / chroma_me=1 / trellis=2 / 8x8dct=1 / cqm=0 / deadzone=21,11 / fast_pskip=0 / chroma_qp_offset=-3 / threads=18 / lookahead_threads=3 / sliced_threads=0 / nr=0 / decimate=0 / interlaced=0 / bluray_compat=0 / constrained_intra=0 / fgo=0 / bframes=10 / b_pyramid=2 / b_adapt=2 / b_bias=0 / direct=3 / weightb=1 / open_gop=0 / weightp=2 / keyint=250 / keyint_min=23 / scenecut=40 / intra_refresh=0 / rc=2pass / mbtree=0 / bitrate=11870 / ratetol=1.0 / qcomp=0.70 / qpmin=0 / qpmax=69 / qpstep=4 / cplxblur=20.0 / qblur=0.5 / ip_ratio=1.40 / pb_ratio=1.30 / aq=1 / aq-strength=0.90 / aq-sensitivity=10.00 / aq-ifactor=1.00 / aq-pfactor=1.00 / aq-bfactor=1.00 / aq2=0
Language : Japanese
Default : Yes
Forced : No

Audio
ID : 2
Format : DTS
Format/Info : Digital Theater Systems
Codec ID : A_DTS
Duration : 1 h 52 min
Bit rate mode : Constant
Bit rate : 1 509 kb/s
Channel(s) : 6 channels
Channel positions : Front: L C R, Side: L R, LFE
Sampling rate : 48.0 kHz
Frame rate : 93.750 FPS (512 SPF)
Bit depth : 24 bits
Compression mode : Lossy
Stream size : 1.18 GiB (11%)
Language : Japanese
Default : Yes
Forced : No

Text
ID : 3
Format : ASS
Codec ID : S_TEXT/ASS
Codec ID/Info : Advanced Sub Station Alpha
Duration : 1 h 52 min
Bit rate : 95 b/s
Count of elements : 1559
Compression mode : Lossless
Stream size : 78.6 KiB (0%)
Language : Chinese
Default : Yes
Forced : No

Menu
00:00:00.000 : en:00:00:00.000
00:01:26.753 : en:00:01:26.753
00:02:45.248 : en:00:02:45.248
00:10:22.371 : en:00:10:22.371
00:24:56.703 : en:00:24:56.703
00:56:28.218 : en:00:56:28.218
01:00:14.611 : en:01:00:14.611
01:05:50.363 : en:01:05:50.363
01:17:10.500 : en:01:17:10.500
01:39:52.945 : en:01:39:52.945
01:46:57.953 : en:01:46:57.953
01:51:03.740 : en:01:51:03.740





1 个附件 售价 大小 下载 时间

Saki.Achiga-hen.Episode.of.Side-A.2018.JAPANESE.1080p.BluRay.x264.DTS-WiKi.zip 0 金币 54.05K 245 次 1月前

#1楼
发帖时间:2020-09-20 14:28:45   |   回复数:0
游客组