squallzhao
武林盟主

[2018] [日本] [剧情] [BD-1080P] 爱上谎言的女人 The.Lies.She.Loved.2017.JAPANESE.1080p.BluRay.x264.DTS-WiKi 9.74GB

-->

帖子完整标题:爱上谎言的女人 The.Lies.She.Loved.2017.JAPANESE.1080p.BluRay.x264.DTS-WiKi 9.74GB



◎译  名 爱上谎言的女人/The Lies She Loved/Uso wo Aisuru Onna/Woman Who Loves Lie/喜欢谎言的女人/爱说谎的女人
◎片  名 嘘を愛する女
◎年  代 2018
◎产  地 日本
◎类  别 剧情 / 悬疑
◎语  言 日语
◎上映日期 2018-01-20(日本)
◎IMDb评分 6.4/10 from 451 users
◎IMDb链接 https://www.imdb.com/title/tt6733368/
◎豆瓣评分 6.4/10 from 6929 users
◎豆瓣链接 https://movie.douban.com/subject/27008562/
◎片  长 118分钟
◎导  演 中江和仁 Kazuhito Nakae
◎编  剧 中江和仁 Kazuhito Nakae
◎主  演 长泽雅美 Masami Nagasawa
      高桥一生 Issey Takahashi
      内藤大湖 DAIGO
      川荣李奈 Rina Kawaei
      黑木瞳 Hitomi Kuroki
      吉田钢太郎 K?tar? Yoshida
      初音映莉子 Eriko Hatsune
      野波麻帆 Maho Nonami
      奥贯薫 Kaoru Okunuki
      水间龙 Long Mizuma

◎标  签 长泽雅美 | 日本 | 高桥一生 | 日本电影 | 2018 | 長澤まさみ | 高橋一生 | 日影

◎简  介

  某大型饮料公司的OL川原由加利(长泽雅美 饰)和男友小出桔平(高桥一生 饰)是一见钟情。原本生活平静,简单幸福,但是这一切都被突如其来的事件所打乱。某天,桔平因蛛网膜下出血突然昏倒,可是随后被医护人员发现,他所持有的驾照、医师执照居然全是伪造的。得知消息的由加利十分震惊,对于这个相处五年之久的男友,竟然自己完全感到陌生。在此之后,由加利请来私家侦探调查桔平,更从男友一份未完成的小说手稿中找到了蛛丝马迹。他是谁?他又为何甘心让自己和爱人活在谎言之中?
  
  本片故事取材自真实事件。

Video
ID : 1
Format : AVC
Format/Info : Advanced Video Codec
Format profile : [email protected]
Format settings : CABAC / 4 Ref Frames
Format settings, CABAC : Yes
Format settings, ReFrames : 4 frames
Codec ID : V_MPEG4/ISO/AVC
Duration : 1 h 57 min
Bit rate : 10.4 Mb/s
Width : 1 920 pixels
Height : 1 038 pixels
Display aspect ratio : 1.85:1
Frame rate mode : Constant
Frame rate : 23.976 (24000/1001/189150) FPS
Color space : YUV
Chroma subsampling : 4:2:0
Bit depth : 8 bits
Scan type : Progressive
Bits/(Pixel*Frame) : 0.217
Stream size : 8.49 GiB (87%)
Writing library : x264 core 129 r2245+704+36 8e61944 tMod+MixAQ [[email protected]:2:0 X86_64]
Encoding settings : cabac=1 / ref=4 / deblock=1:-3:-3 / analyse=0x3:0x133 / me=umh / subme=11 / psy=1 / fade_compensate=0.00 / psy_rd=1.05:0.10 / mixed_ref=1 / me_range=64 / chroma_me=1 / trellis=2 / 8x8dct=1 / cqm=0 / deadzone=21,11 / fast_pskip=0 / chroma_qp_offset=-3 / threads=18 / lookahead_threads=3 / sliced_threads=0 / nr=0 / decimate=0 / interlaced=0 / bluray_compat=0 / constrained_intra=0 / fgo=0 / bframes=10 / b_pyramid=2 / b_adapt=2 / b_bias=0 / direct=3 / weightb=1 / open_gop=0 / weightp=2 / keyint=250 / keyint_min=23 / scenecut=40 / intra_refresh=0 / rc=2pass / mbtree=0 / bitrate=10364 / ratetol=1.0 / qcomp=0.70 / qpmin=0 / qpmax=69 / qpstep=4 / cplxblur=20.0 / qblur=0.5 / ip_ratio=1.40 / pb_ratio=1.30 / aq=1 / aq-strength=0.90 / aq-sensitivity=10.00 / aq-ifactor=1.00 / aq-pfactor=1.00 / aq-bfactor=1.00 / aq2=0
Language : Japanese
Default : Yes
Forced : No

Audio
ID : 2
Format : DTS
Format/Info : Digital Theater Systems
Codec ID : A_DTS
Duration : 1 h 57 min
Bit rate mode : Constant
Bit rate : 1 509 kb/s
Channel(s) : 6 channels
Channel positions : Front: L C R, Side: L R, LFE
Sampling rate : 48.0 kHz
Frame rate : 93.750 FPS (512 SPF)
Bit depth : 24 bits
Compression mode : Lossy
Stream size : 1.24 GiB (13%)
Language : Japanese
Default : Yes
Forced : No

Text
ID : 3
Format : ASS
Codec ID : S_TEXT/ASS
Codec ID/Info : Advanced Sub Station Alpha
Duration : 1 h 53 min
Bit rate : 65 b/s
Count of elements : 1067
Compression mode : Lossless
Stream size : 54.4 KiB (0%)
Language : Chinese
Default : Yes
Forced : No

Menu
00:00:00.000 : en:00:00:00.000
00:08:42.813 : en:00:08:42.813
00:20:25.599 : en:00:20:25.599
00:33:30.508 : en:00:33:30.508
00:44:07.436 : en:00:44:07.436
00:50:24.688 : en:00:50:24.688
01:03:26.636 : en:01:03:26.636
01:14:03.981 : en:01:14:03.981
01:29:00.835 : en:01:29:00.835
01:35:22.550 : en:01:35:22.550
01:43:15.188 : en:01:43:15.188
01:53:15.914 : en:01:53:15.914
01:57:26.706 : en:01:57:26.706





1 个附件 售价 大小 下载 时间

The.Lies.She.Loved.2017.JAPANESE.1080p.BluRay.x264.DTS-WiKi.zip 0 金币 98.88K 364 次 1月前

#1楼
发帖时间:2020-09-20 14:26:07   |   回复数:0
游客组