squallzhao
武林盟主

[2017] [日本] [剧情] [BD-1080P] 跨越8年的新娘 The.8-Year.Engagement.2017.JAPANESE.1080p.BluRay.x264.DTS-WiKi 9.75GB

-->

帖子完整标题:跨越8年的新娘 The.8-Year.Engagement.2017.JAPANESE.1080p.BluRay.x264.DTS-WiKi 9.75GB



◎译  名 跨越8年的新娘/The 8-Year Engagement/跨越八年的新娘
◎片  名 8年越しの花嫁
◎年  代 2017
◎产  地 日本
◎类  别 剧情 / 爱情
◎语  言 日语
◎上映日期 2017-12-16(日本) / 2018-10-19(中国大陆)
◎IMDb评分 7.1/10 from 581 users
◎IMDb链接 https://www.imdb.com/title/tt6313348/
◎豆瓣评分 7.0/10 from 9315 users
◎豆瓣链接 https://movie.douban.com/subject/26929835/
◎片  长 119分钟
◎导  演 濑濑敬久 Takahisa Zeze
◎编  剧 冈田惠和 Yoshikazu Okada
◎主  演 佐藤健 Takeru Satoh
      土屋太凤 Tao Tsuchiya
      北村一辉 Kazuki Kitamura
      滨野谦太 Kenta Hamano
      中村友理 Yuri Nakamura
      堀部圭亮 Keisuke Horibe
      古馆宽治 Kanji Furutachi
      杉本哲太 Tetta Sugimoto
      药师丸博子 Hiroko Yakushimaru
      小西悠加 Haruka Konishi
      松本来梦 Ramu Matsumoto

◎标  签 日本 | 爱情 | 真实事件改编 | 温情 | 感动 | 2017 | 剧情 | 家庭

◎简  介

  在某修车行工作的西泽尚志(佐藤健 饰)看起来像个寡然无味的年轻人,他和其他男生参加了一次联谊,阴差阳错和联谊会上的女孩中原麻衣(土屋太凤 饰)熟稔。麻衣快人快语,开朗阳光,和尚志形成了完美的互补。在接下来的一段时间,两人越走越近,尚志终于鼓起勇气向麻衣求婚,一切看似美好。可是毫无征兆,麻衣身上出现了各种奇怪的症状。经诊断发现,她罹患了十分棘手的疑难杂症——抗NMDA受体脑炎。最终,麻衣陷入长久的昏迷,饱受折磨。女孩的遭遇令她的父母伤痛欲绝,而尚志则不离不弃,始终坚守在女友身边,等待他醒来那一天。终于,麻衣张开了紧闭多年的双眼,可是更多的考验还等在前面……
  
  本片根据真实事件改编。

◎获奖情况

  第41届日本电影学院奖 ?(2018)
  最佳男主角(提名) 佐藤健
  最佳女主角(提名) 土屋太凤
  最佳女配角(提名) 药师丸博子
  最佳配乐(提名) 村松崇继

Video
ID : 1
Format : AVC
Format/Info : Advanced Video Codec
Format profile : [email protected]
Format settings : CABAC / 4 Ref Frames
Format settings, CABAC : Yes
Format settings, ReFrames : 4 frames
Codec ID : V_MPEG4/ISO/AVC
Duration : 1 h 59 min
Bit rate : 10.2 Mb/s
Width : 1 920 pixels
Height : 1 038 pixels
Display aspect ratio : 1.85:1
Frame rate mode : Constant
Frame rate : 23.976 (24000/1001/189150) FPS
Color space : YUV
Chroma subsampling : 4:2:0
Bit depth : 8 bits
Scan type : Progressive
Bits/(Pixel*Frame) : 0.213
Stream size : 8.48 GiB (87%)
Writing library : x264 core 129 r2245+704+36 8e61944 tMod+MixAQ [[email protected]:2:0 X86_64]
Encoding settings : cabac=1 / ref=4 / deblock=1:-3:-3 / analyse=0x3:0x133 / me=umh / subme=11 / psy=1 / fade_compensate=0.00 / psy_rd=1.05:0.10 / mixed_ref=1 / me_range=64 / chroma_me=1 / trellis=2 / 8x8dct=1 / cqm=0 / deadzone=21,11 / fast_pskip=0 / chroma_qp_offset=-3 / threads=18 / lookahead_threads=3 / sliced_threads=0 / nr=0 / decimate=0 / interlaced=0 / bluray_compat=0 / constrained_intra=0 / fgo=0 / bframes=10 / b_pyramid=2 / b_adapt=2 / b_bias=0 / direct=3 / weightb=1 / open_gop=0 / weightp=2 / keyint=250 / keyint_min=23 / scenecut=40 / intra_refresh=0 / rc=2pass / mbtree=0 / bitrate=10160 / ratetol=1.0 / qcomp=0.70 / qpmin=0 / qpmax=69 / qpstep=4 / cplxblur=20.0 / qblur=0.5 / ip_ratio=1.40 / pb_ratio=1.30 / aq=1 / aq-strength=0.90 / aq-sensitivity=10.00 / aq-ifactor=1.00 / aq-pfactor=1.00 / aq-bfactor=1.00 / aq2=0
Language : Japanese
Default : Yes
Forced : No

Audio
ID : 2
Format : DTS
Format/Info : Digital Theater Systems
Codec ID : A_DTS
Duration : 1 h 59 min
Bit rate mode : Constant
Bit rate : 1 509 kb/s
Channel(s) : 6 channels
Channel positions : Front: L C R, Side: L R, LFE
Sampling rate : 48.0 kHz
Frame rate : 93.750 FPS (512 SPF)
Bit depth : 24 bits
Compression mode : Lossy
Stream size : 1.26 GiB (13%)
Language : Japanese
Default : Yes
Forced : No

Text #1
ID : 3
Format : ASS
Codec ID : S_TEXT/ASS
Codec ID/Info : Advanced Sub Station Alpha
Duration : 1 h 59 min
Bit rate : 48 b/s
Count of elements : 1181
Compression mode : Lossless
Stream size : 42.0 KiB (0%)
Title : Simplified_JX
Language : Chinese
Default : Yes
Forced : No

Text #2
ID : 4
Format : ASS
Codec ID : S_TEXT/ASS
Codec ID/Info : Advanced Sub Station Alpha
Duration : 1 h 59 min
Bit rate : 48 b/s
Count of elements : 1181
Compression mode : Lossless
Stream size : 42.0 KiB (0%)
Title : Traditional_JX
Language : Chinese
Default : No
Forced : No

Text #3
ID : 5
Format : ASS
Codec ID : S_TEXT/ASS
Codec ID/Info : Advanced Sub Station Alpha
Duration : 1 h 58 min
Bit rate : 57 b/s
Count of elements : 1186
Compression mode : Lossless
Stream size : 49.8 KiB (0%)
Title : Simplified_R3
Language : Chinese
Default : No
Forced : No

Text #4
ID : 6
Format : ASS
Codec ID : S_TEXT/ASS
Codec ID/Info : Advanced Sub Station Alpha
Duration : 1 h 58 min
Bit rate : 57 b/s
Count of elements : 1186
Compression mode : Lossless
Stream size : 49.8 KiB (0%)
Title : Traditional_R3
Language : Chinese
Default : No
Forced : No

Menu
00:00:00.000 : en:00:00:00.000
00:15:00.858 : en:00:15:00.858
00:28:18.571 : en:00:28:18.571
00:43:44.705 : en:00:43:44.705
00:58:41.935 : en:00:58:41.935
01:14:52.321 : en:01:14:52.321
01:30:39.100 : en:01:30:39.100
01:45:03.880 : en:01:45:03.880
01:59:27.577 : en:01:59:27.577





1 个附件 售价 大小 下载 时间

The.8-Year.Engagement.2017.JAPANESE.1080p.BluRay.x264.DTS-WiKi.zip 0 金币 99.04K 333 次 1月前

#1楼
发帖时间:2020-09-20 14:23:03   |   回复数:0
游客组