squallzhao
武林盟主

[2017] [日本] [喜剧] [BD-1080P] 虽说是未成年但可不是小孩哟/虽是未成年但不是孩子 Teen.Bride.2017.JAPANESE.1080p.BluRay.x264-WiKi 8.99GB

-->

帖子完整标题:虽说是未成年但可不是小孩哟/虽是未成年但不是孩子 Teen.Bride.2017.JAPANESE.1080p.BluRay.x264-WiKi 8.99GB



◎译  名 虽说是未成年,但可不是小孩哟/虽是未成年,但不是孩子
◎片  名 未成年だけどコドモじゃない
◎年  代 2017
◎产  地 日本
◎类  别 喜剧 / 爱情
◎语  言 日语
◎上映日期 2017-12-23(日本)
◎IMDb评分 6.3/10 from 148 users
◎IMDb链接 https://www.imdb.com/title/tt7027850/
◎豆瓣评分 5.7/10 from 2855 users
◎豆瓣链接 https://movie.douban.com/subject/27069412/
◎片  长 104分钟
◎导  演 英勉 Tsutomu Hanabusa
◎主  演 中岛健人 Kento Nakajima
      平祐奈 Yuna Taira
      知念侑李 Yuri Chinen
      山本舞香 Maika Yamamoto
      村上新悟 Shingo Murakimi
      高岛政宏 Masahiro Takashima

◎标  签 爱情 | 日本电影 | 日本 | 电影 | 漫画改编 | 日影 | 漫改 | 2017

◎简  介

  学业卓著、体育全能的高中生鹤木尚(中岛健人 饰)是学校内一顶一的红人,更是无数女孩倾倒热恋的王子殿下。在他的爱慕者中,有一个稍显特殊的女孩,那就是系出名门的娇贵大小姐折山香琳(平祐奈 饰)。偶然的机缘,让香琳迷上了光彩夺目的鹤木前辈,在内心的最深处,她早已将对方视为非此不嫁的另一半。这一日,香琳从父亲(高岛政宏 饰)口中听到一个令她震惊的消息,那就是在16岁这一年,她将和父亲选定的乘龙快婿步入婚礼殿堂。原本打算抵死拒绝的香琳,很快就发现原来婚约对象居然正是鹤木前辈,这可真是喜出望外的大好事。只是,所谓的命运之恋,并非想象般浪漫而甜蜜。
  
  本片根据水波风南的同名漫画改编……

Video
ID : 1
Format : AVC
Format/Info : Advanced Video Codec
Format profile : [email protected]
Format settings : CABAC / 4 Ref Frames
Format settings, CABAC : Yes
Format settings, ReFrames : 4 frames
Codec ID : V_MPEG4/ISO/AVC
Duration : 1 h 44 min
Bit rate : 11.6 Mb/s
Width : 1 920 pixels
Height : 1 038 pixels
Display aspect ratio : 1.85:1
Frame rate mode : Constant
Frame rate : 23.976 (24000/1001/189150) FPS
Color space : YUV
Chroma subsampling : 4:2:0
Bit depth : 8 bits
Scan type : Progressive
Bits/(Pixel*Frame) : 0.243
Stream size : 8.52 GiB (95%)
Writing library : x264 core 129 r2245+704+36 8e61944 tMod+MixAQ [[email protected]:2:0 X86_64]
Encoding settings : cabac=1 / ref=4 / deblock=1:-3:-3 / analyse=0x3:0x133 / me=umh / subme=11 / psy=1 / fade_compensate=0.00 / psy_rd=1.05:0.10 / mixed_ref=1 / me_range=64 / chroma_me=1 / trellis=2 / 8x8dct=1 / cqm=0 / deadzone=21,11 / fast_pskip=0 / chroma_qp_offset=-3 / threads=18 / lookahead_threads=3 / sliced_threads=0 / nr=0 / decimate=0 / interlaced=0 / bluray_compat=0 / constrained_intra=0 / fgo=0 / bframes=10 / b_pyramid=2 / b_adapt=2 / b_bias=0 / direct=3 / weightb=1 / open_gop=0 / weightp=2 / keyint=250 / keyint_min=23 / scenecut=40 / intra_refresh=0 / rc=2pass / mbtree=0 / bitrate=11626 / ratetol=1.0 / qcomp=0.70 / qpmin=0 / qpmax=69 / qpstep=4 / cplxblur=20.0 / qblur=0.5 / ip_ratio=1.40 / pb_ratio=1.30 / aq=1 / aq-strength=0.90 / aq-sensitivity=10.00 / aq-ifactor=1.00 / aq-pfactor=1.00 / aq-bfactor=1.00 / aq2=0
Language : Japanese
Default : Yes
Forced : No

Audio
ID : 2
Format : AC-3
Format/Info : Audio Coding 3
Codec ID : A_AC3
Duration : 1 h 44 min
Bit rate mode : Constant
Bit rate : 640 kb/s
Channel(s) : 6 channels
Channel positions : Front: L C R, Side: L R, LFE
Sampling rate : 48.0 kHz
Frame rate : 31.250 FPS (1536 SPF)
Bit depth : 16 bits
Compression mode : Lossy
Stream size : 481 MiB (5%)
Language : Japanese
Service kind : Complete Main
Default : Yes
Forced : No

Text #1
ID : 3
Format : ASS
Codec ID : S_TEXT/ASS
Codec ID/Info : Advanced Sub Station Alpha
Duration : 1 h 39 min
Bit rate : 62 b/s
Count of elements : 1122
Compression mode : Lossless
Stream size : 45.7 KiB (0%)
Title : Simplified
Language : Chinese
Default : Yes
Forced : No

Text #2
ID : 4
Format : ASS
Codec ID : S_TEXT/ASS
Codec ID/Info : Advanced Sub Station Alpha
Duration : 1 h 39 min
Bit rate : 62 b/s
Count of elements : 1122
Compression mode : Lossless
Stream size : 45.7 KiB (0%)
Title : Traditional
Language : Chinese
Default : No
Forced : No

Menu
00:00:00.000 : en:00:00:00.000
00:07:28.364 : en:00:07:28.364
00:14:49.972 : en:00:14:49.972
00:20:02.618 : en:00:20:02.618
00:27:53.296 : en:00:27:53.296
00:38:28.681 : en:00:38:28.681
00:45:27.599 : en:00:45:27.599
00:51:54.111 : en:00:51:54.111
00:58:04.898 : en:00:58:04.898
01:07:01.142 : en:01:07:01.142
01:14:12.865 : en:01:14:12.865
01:22:35.617 : en:01:22:35.617
01:44:57.290 : en:01:44:57.290





1 个附件 售价 大小 下载 时间

Teen.Bride.2017.JAPANESE.1080p.BluRay.x264-WiKi.zip 0 金币 91.37K 231 次 1月前

#1楼
发帖时间:2020-09-20 14:19:40   |   回复数:0
游客组