squallzhao
武林盟主

[2017] [日本] [剧情] [BD-1080P] 烟花 Fireworks.2017.JAPANESE.1080p.BluRay.x264.DTS-WiKi 5.39GB

-->

帖子完整标题:烟花 Fireworks.2017.JAPANESE.1080p.BluRay.x264.DTS-WiKi 5.39GB



◎译  名 烟花/Fireworks, Should We See It from the Side or the Bottom?/Uchiage hanabi, shita kara miruka? Yoko kara miruka?/升空的焰火,从下面看?还是从侧面看?/烟花,应该和谁看(港)/烟花动画版
◎片  名 打ち上げ花火、下から見るか?横から見るか?
◎年  代 2017
◎产  地 日本
◎类  别 剧情 / 动画
◎语  言 日语
◎上映日期 2017-08-18(日本) / 2017-12-01(中国大陆)
◎IMDb评分 5.5/10 from 2384 users
◎IMDb链接 https://www.imdb.com/title/tt6317962/
◎豆瓣评分 5.5/10 from 47435 users
◎豆瓣链接 https://movie.douban.com/subject/26930504/
◎片  长 90分钟
◎导  演 新房昭之 Akiyuki Shinbo / 武内宣之 Takeuchi Nobuyuki
◎编  剧 大根仁 Hitoshi Ohne / 岩井俊二 Shunji Iwai
◎主  演 广濑铃 Suzu Hirose
      菅田将晖 Masaki Suda
      宫野真守 Mamoru Miyano
      松隆子 Takako Matsu
      花泽香菜 Kana Hanazawa
      浅沼晋太郎 Shintaro Asanuma
      丰永利行 Toshiyuki Toyonaga
      梶裕贵 Y?ki Kaji
      三木真一郎 Shinichir? Miki
      樱井孝宏 Takahiro Sakurai
      根谷美智子 Michiko Neya
      飞田展男 Nobuo Tobita
      宫本充 Mitsuru Miyamoto
      立木文彦 Fumihiko Tachiki
      斋藤千和 Chiwa Saito
      岛村侑 Yu Shimamura
      新垣樽助 Tarusuke Shingaki
      种崎敦美 Atsumi Tanezaki
      小原好美 Konomi Kohara

◎标  签 日本 | 青春 | 动漫 | 动画 | 烟花 | 爱情 | 二次元 | 2017

◎简  介

  炎炎夏日,茂下町的烟花大会即将举行。就读于当地高中的及川奈砂(广濑铃 配音)并未沉浸在愉快祥和的气氛之中,她即将随母亲(松隆子 配音)搬家到另一个城市,心中满是失落。在某次即兴的游泳比赛时,奈砂击败同班同学岛田典道(菅田将晖 配音)和安昙祐介(宫野真守 配音)。随后她坦白喜欢祐介,希望烟花大会时能与对方一同游玩。可是祐介、典道随后卷入和朋友们关于“烟花到底是圆是扁”的争论中,大家约好当晚一起去某地见证。祐介因此爽约,而同样偷偷喜欢着奈砂的典道因此发觉了女孩的秘密和心思。他为此责怪好友,也渴望时光重来,迎得当初那场比赛……
  
  本片根据岩井俊二的同名电视剧改编。

◎获奖情况

  第41届日本电影学院奖 ?(2018)
  最佳动画片(提名)

Video
ID : 1
Format : AVC
Format/Info : Advanced Video Codec
Format profile : [email protected]
Format settings : CABAC / 4 Ref Frames
Format settings, CABAC : Yes
Format settings, ReFrames : 4 frames
Codec ID : V_MPEG4/ISO/AVC
Duration : 1 h 30 min
Bit rate : 7 000 kb/s
Width : 1 920 pixels
Height : 1 080 pixels
Display aspect ratio : 16:9
Frame rate mode : Constant
Frame rate : 23.976 (24000/1001/189150) FPS
Color space : YUV
Chroma subsampling : 4:2:0
Bit depth : 8 bits
Scan type : Progressive
Bits/(Pixel*Frame) : 0.141
Stream size : 4.33 GiB (80%)
Writing library : x264 core 130 r2273 b3065e6
Encoding settings : cabac=1 / ref=4 / deblock=1:-1:-1 / analyse=0x3:0x113 / me=umh / subme=11 / psy=1 / psy_rd=1.00:0.00 / mixed_ref=1 / me_range=32 / chroma_me=1 / trellis=2 / 8x8dct=1 / cqm=0 / deadzone=21,11 / fast_pskip=0 / chroma_qp_offset=-4 / threads=12 / lookahead_threads=2 / sliced_threads=0 / nr=0 / decimate=0 / interlaced=0 / bluray_compat=0 / constrained_intra=0 / bframes=8 / b_pyramid=2 / b_adapt=2 / b_bias=0 / direct=3 / weightb=1 / open_gop=0 / weightp=2 / keyint=250 / keyint_min=23 / scenecut=40 / intra_refresh=0 / rc_lookahead=85 / rc=2pass / mbtree=1 / bitrate=7000 / ratetol=1.0 / qcomp=0.60 / qpmin=0 / qpmax=69 / qpstep=4 / cplxblur=20.0 / qblur=0.5 / ip_ratio=1.40 / aq=1:0.85
Language : English
Default : Yes
Forced : No

Audio
ID : 2
Format : DTS
Format/Info : Digital Theater Systems
Codec ID : A_DTS
Duration : 1 h 30 min
Bit rate mode : Constant
Bit rate : 1 509 kb/s
Channel(s) : 6 channels
Channel positions : Front: L C R, Side: L R, LFE
Sampling rate : 48.0 kHz
Frame rate : 93.750 FPS (512 SPF)
Bit depth : 24 bits
Compression mode : Lossy
Stream size : 972 MiB (18%)
Title : 日语
Language : Japanese
Default : Yes
Forced : No

Text
ID : 3
Format : ASS
Codec ID : S_TEXT/ASS
Codec ID/Info : Advanced Sub Station Alpha
Compression mode : Lossless
Title : chs
Language : Chinese
Default : Yes
Forced : No





1 个附件 售价 大小 下载 时间

Fireworks.2017.JAPANESE.1080p.BluRay.x264.DTS-WiKi.zip 0 金币 55.34K 175 次 1月前

#1楼
发帖时间:2020-09-20 14:16:35   |   回复数:0
游客组