squallzhao
武林盟主

[2017] [日本] [剧情] [BD-1080P] 火花 Spark.2017.1080p.BluRay.x264.DTS-WiKi 10.50GB

-->

帖子完整标题:火花 Spark.2017.1080p.BluRay.x264.DTS-WiKi 10.50GB



◎译  名 Hibana: Spark/Sparks the Movie/栋笃双星血肉史(港)/火花映画版/火花电影版
◎片  名 火花
◎年  代 2017
◎产  地 日本
◎类  别 剧情
◎语  言 日语
◎上映日期 2017-10-15(京都国际电影节) / 2017-11-23(日本)
◎IMDb评分 6.4/10 from 92 users
◎IMDb链接 https://www.imdb.com/title/tt6538416/
◎豆瓣评分 6.3/10 from 3426 users
◎豆瓣链接 https://movie.douban.com/subject/26974725/
◎片  长 121分钟
◎导  演 板尾创路 Itsuji Itao
◎编  剧 板尾创路 Itsuji Itao / 丰田利晃 Toyoda Toshiaki / 又吉直树 Naoki Matayoshi
◎主  演 菅田将晖 Masaki Suda
      桐谷健太 Kenta Kiritani
      木村文乃 Fumino Kimura
      川谷修士 Sh?ji Kawatani
      三浦诚己 Masaki Miura
      加藤谅 Ry? Kat?
      高桥努 Tsutomu Takahashi
      日野阳仁 Youjin Hino
      山崎树范 Shigenori Yamazaki
      裴正明 Jyonmyon Pe

◎标  签 日本 | 2017 | 电影 | 剧情 | 小说改编 | 文艺 | 励志 | 梦想

◎简  介

  Sparks是一对完全不卖座的青年卖座组合,在某次露天演出中,成员之一德永(菅田将晖 饰)被傻瓜二人组的神谷才藏(桐谷健太 饰)所吸引。神谷同样渴望成名,他空有满脑子的好点子,却始终和这个世界格格不入。德永钦佩对方,于是请求拜对方为师。与之相对,神谷则提出了要德永为他写传记的要求。此后的岁月里,师徒二人惺惺相惜,每次聊天吃饭都夹杂着令人捧腹的插科打诨。在这一过程中,与神谷同居的女子真里(木村文乃 饰)选择成家,出道没多久的后辈名声大噪,一同打拼多年的搭档萌生退意。为了喜欢的事业,德永和神谷都不知不觉奉献着自己的全部人生,只为那花火退去后的星点光辉……
  
  本片根据又吉直树的原著改编。

◎获奖情况

  第42届报知映画赏 ?(2017)
  最佳男主角 菅田将晖

Video
ID : 1
Format : AVC
Format/Info : Advanced Video Codec
Format profile : [email protected]
Format settings : CABAC / 4 Ref Frames
Format settings, CABAC : Yes
Format settings, ReFrames : 4 frames
Codec ID : V_MPEG4/ISO/AVC
Duration : 2 h 0 min
Bit rate : 10.9 Mb/s
Width : 1 920 pixels
Height : 1 038 pixels
Display aspect ratio : 1.85:1
Frame rate mode : Constant
Frame rate : 23.976 (24000/1001/189150) FPS
Color space : YUV
Chroma subsampling : 4:2:0
Bit depth : 8 bits
Scan type : Progressive
Bits/(Pixel*Frame) : 0.229
Stream size : 9.22 GiB (88%)
Writing library : x264 core 129 r2245+704+36 8e61944 tMod+MixAQ [[email protected]:2:0 X86_64]
Encoding settings : cabac=1 / ref=4 / deblock=1:-3:-3 / analyse=0x3:0x133 / me=umh / subme=11 / psy=1 / fade_compensate=0.00 / psy_rd=1.05:0.10 / mixed_ref=1 / me_range=64 / chroma_me=1 / trellis=2 / 8x8dct=1 / cqm=0 / deadzone=21,11 / fast_pskip=0 / chroma_qp_offset=-3 / threads=18 / lookahead_threads=3 / sliced_threads=0 / nr=0 / decimate=0 / interlaced=0 / bluray_compat=0 / constrained_intra=0 / fgo=0 / bframes=10 / b_pyramid=2 / b_adapt=2 / b_bias=0 / direct=3 / weightb=1 / open_gop=0 / weightp=2 / keyint=250 / keyint_min=23 / scenecut=40 / intra_refresh=0 / rc=2pass / mbtree=0 / bitrate=10932 / ratetol=1.0 / qcomp=0.70 / qpmin=0 / qpmax=69 / qpstep=4 / cplxblur=20.0 / qblur=0.5 / ip_ratio=1.40 / pb_ratio=1.30 / aq=1 / aq-strength=0.90 / aq-sensitivity=10.00 / aq-ifactor=1.00 / aq-pfactor=1.00 / aq-bfactor=1.00 / aq2=0
Language : Japanese
Default : Yes
Forced : No

Audio
ID : 2
Format : DTS
Format/Info : Digital Theater Systems
Codec ID : A_DTS
Duration : 2 h 0 min
Bit rate mode : Constant
Bit rate : 1 509 kb/s
Channel(s) : 6 channels
Channel positions : Front: L C R, Side: L R, LFE
Sampling rate : 48.0 kHz
Frame rate : 93.750 FPS (512 SPF)
Bit depth : 24 bits
Compression mode : Lossy
Stream size : 1.27 GiB (12%)
Language : Japanese
Default : Yes
Forced : No

Text
ID : 3
Format : ASS
Codec ID : S_TEXT/ASS
Codec ID/Info : Advanced Sub Station Alpha
Duration : 1 h 59 min
Bit rate : 103 b/s
Count of elements : 1813
Compression mode : Lossless
Stream size : 91.1 KiB (0%)
Language : Chinese
Default : Yes
Forced : No

Menu
00:00:00.000 : en:00:00:00.000
00:14:26.240 : en:00:14:26.240
00:20:31.146 : en:00:20:31.146
00:31:23.381 : en:00:31:23.381
00:41:25.232 : en:00:41:25.232
00:53:27.495 : en:00:53:27.495
01:02:39.756 : en:01:02:39.756
01:12:55.537 : en:01:12:55.537
01:23:31.756 : en:01:23:31.756
01:29:22.398 : en:01:29:22.398
01:41:50.521 : en:01:41:50.521
01:49:50.000 : en:01:49:50.000
02:00:45.529 : en:02:00:45.529





1 个附件 售价 大小 下载 时间

Spark.2017.1080p.BluRay.x264.DTS-WiKi.zip 0 金币 53.93K 203 次 1月前

#1楼
发帖时间:2020-09-20 14:09:16   |   回复数:1
kola13
武林盟主
感谢分享
1月前 #2楼
游客组