squallzhao
武林盟主

[2018] [其他] [喜剧] [BD-1080P] 卧底巨星 Keep.Calm.and.Be.a.Superstar.2018.CHINESE.1080p.BluRay.x264-WiKi 7.50GB

-->

帖子完整标题:卧底巨星 Keep.Calm.and.Be.a.Superstar.2018.CHINESE.1080p.BluRay.x264-WiKi 7.50GB



◎译  名 Keep Calm and Be A Superstar
◎片  名 卧底巨星
◎年  代 2018
◎产  地 中国大陆,中国香港
◎类  别 喜剧 / 动作
◎语  言 粤语,汉语普通话
◎上映日期 2018-01-12(中国大陆)
◎IMDb评分 4/10 from 89 users
◎IMDb链接 https://www.imdb.com/title/tt7263974/
◎豆瓣评分 3.6/10 from 16075 users
◎豆瓣链接 https://movie.douban.com/subject/26984538/
◎片  长 98分钟
◎导  演 谷德昭 Vincent Kok
◎编  剧 谷德昭 Vincent Kok / 陈茂贤 Anselm Chan / 冯勉恒 Min Hun Fung
◎主  演 陈奕迅 Eason Chan
      李荣浩 Ronghao Li
      李一桐 Yitong Li
      陈国坤 Kwok-Kwan Chan
      崔志佳 Zhijia Cui
      许绍雄 Siu-Hung Hui
      刘浩龙 Wilfred Lau
      田启文 Kai Man Tin
      高战 Chris Collins
      马志威 Edward Ma
      李聪 Li Cong
      林子聪 Tze Chung Lam

◎标  签 喜剧 | 香港 | 搞笑 | 2018 | 动作 | 明星 | 国产 | 中国大陆

◎简  介

  动作巨星元豹(陈奕迅 饰)走红二十余载却从未得到过最佳男主角,因与泰国黑帮老大“八面佛”交好而被怀疑参与跨国贩毒犯罪,铁杆迷弟铁柱(李荣浩 饰)通过擅长“潜规则”的副导(崔志佳 饰)潜入元豹新电影的剧组,努力配合警方收集证据想为偶像洗脱嫌疑。在经历了恋上女一号童童(李一桐 饰),得罪元豹经纪人泰格(陈国坤 饰),晋升成为男二号,目睹偶像用替身、耍大牌等一系列啼笑皆非的“娱乐圈初体验”之后,铁柱也终于离案件更近了一些……

Video
ID : 1
Format : AVC
Format/Info : Advanced Video Codec
Format profile : [email protected]
Format settings : CABAC / 5 Ref Frames
Format settings, CABAC : Yes
Format settings, ReFrames : 5 frames
Codec ID : V_MPEG4/ISO/AVC
Duration : 1 h 37 min
Bit rate : 10.4 Mb/s
Width : 1 920 pixels
Height : 816 pixels
Display aspect ratio : 2.35:1
Frame rate mode : Constant
Frame rate : 24.000 FPS
Color space : YUV
Chroma subsampling : 4:2:0
Bit depth : 8 bits
Scan type : Progressive
Bits/(Pixel*Frame) : 0.276
Stream size : 7.06 GiB (94%)
Title : Keep.Calm.and.Be.a.Superstar.2018.CHINESE.1080p.BluRay.x264-WiKi
Writing library : x264 core 129 r2245 bc13772
Encoding settings : cabac=1 / ref=5 / deblock=1:-3:-3 / analyse=0x3:0x133 / me=umh / subme=11 / psy=1 / psy_rd=1.05:0.05 / mixed_ref=1 / me_range=64 / chroma_me=1 / trellis=2 / 8x8dct=1 / cqm=0 / deadzone=21,11 / fast_pskip=0 / chroma_qp_offset=-3 / threads=12 / lookahead_threads=2 / sliced_threads=0 / nr=0 / decimate=1 / interlaced=0 / bluray_compat=0 / constrained_intra=0 / bframes=8 / b_pyramid=2 / b_adapt=2 / b_bias=0 / direct=3 / weightb=1 / open_gop=0 / weightp=2 / keyint=250 / keyint_min=24 / scenecut=40 / intra_refresh=0 / rc_lookahead=60 / rc=2pass / mbtree=1 / bitrate=10374 / ratetol=1.0 / qcomp=0.60 / qpmin=0 / qpmax=69 / qpstep=4 / cplxblur=20.0 / qblur=0.5 / vbv_maxrate=40000 / vbv_bufsize=30000 / nal_hrd=none / ip_ratio=1.40 / aq=1:0.65
Language : English
Default : Yes
Forced : No

Audio
ID : 2
Format : AC-3
Format/Info : Audio Coding 3
Codec ID : A_AC3
Duration : 1 h 37 min
Bit rate mode : Constant
Bit rate : 640 kb/s
Channel(s) : 6 channels
Channel positions : Front: L C R, Side: L R, LFE
Sampling rate : 48.0 kHz
Frame rate : 31.250 FPS (1536 SPF)
Bit depth : 16 bits
Compression mode : Lossy
Stream size : 447 MiB (6%)
Title : Keep.Calm.and.Be.a.Superstar.2018.CHINESE.1080p.BluRay.x264-WiKi
Language : Chinese
Service kind : Complete Main
Default : Yes
Forced : No

Text #1
ID : 3
Format : UTF-8
Codec ID : S_TEXT/UTF8
Codec ID/Info : UTF-8 Plain Text
Duration : 1 h 32 min
Bit rate : 59 b/s
Count of elements : 1675
Stream size : 40.4 KiB (0%)
Title : English
Language : English
Default : Yes
Forced : Yes

Text #2
ID : 4
Format : UTF-8
Codec ID : S_TEXT/UTF8
Codec ID/Info : UTF-8 Plain Text
Duration : 1 h 32 min
Bit rate : 56 b/s
Count of elements : 1688
Stream size : 38.6 KiB (0%)
Title : Chinese
Language : Chinese
Default : No
Forced : No

Text #3
ID : 5
Format : UTF-8
Codec ID : S_TEXT/UTF8
Codec ID/Info : UTF-8 Plain Text
Duration : 1 h 32 min
Bit rate : 56 b/s
Count of elements : 1688
Stream size : 38.6 KiB (0%)
Title : Chinese
Language : Chinese
Default : No
Forced : No





1 个附件 售价 大小 下载 时间

Keep.Calm.and.Be.a.Superstar.2018.CHINESE.1080p.BluRay.x264-WiKi.zip 0 金币 76.50K 217 次 1月前

#1楼
发帖时间:2020-09-20 14:06:46   |   回复数:0
游客组