squallzhao
武林盟主

[2017] [日本] [喜剧] [BD-1080P] 齐木楠雄的灾难 真人版/超能力者齐木楠雄的灾难 真人版 Psychic.Kusuo.2017.JAPANESE.1080p.BluRay.x264.DTS-Wi

-->

帖子完整标题:齐木楠雄的灾难 真人版/超能力者齐木楠雄的灾难 真人版 Psychic.Kusuo.2017.JAPANESE.1080p.BluRay.x264.DTS-WiKi 9.01GB



◎译  名 齐木楠雄的灾难 真人版/超能力者齐木楠雄的灾难 真人版
◎片  名 斉木楠雄のΨ難
◎年  代 2017
◎产  地 日本
◎类  别 喜剧
◎语  言 日语
◎上映日期 2017-10-21(日本)
◎IMDb评分 5.4/10 from 372 users
◎IMDb链接 https://www.imdb.com/title/tt4773438/
◎豆瓣评分 5.7/10 from 10404 users
◎豆瓣链接 https://movie.douban.com/subject/26425035/
◎片  长 97分钟
◎导  演 福田雄一 Y?ichi Fukuda
◎编  剧 福田雄一 Y?ichi Fukuda
◎主  演 山崎贤人 Kento Yamazaki
      桥本环奈 Kanna Hashimoto
      新井浩文 Hirofumi Arai
      吉泽亮 Yoshizawa Ryo
      笠原秀幸 Hideyuki Kasahara
      贺来贤人 Kento Kaku
      室毅 Tsuyoshi Muro
      佐藤二朗 Jir? Sat?
      田边诚一 Seiichi Tanabe
      内田有纪 Yuki Uchida
      镰仓太郎 Tar? Kamakura
      平野生成 Kinari Hirano
      猪塚健太 Kenta Izuka

◎标  签 日本 | 漫改 | 山崎贤人 | 真人化 | 漫画改编 | 日本电影 | 喜剧 | 电影

◎简  介

  《齐木楠雄的灾难》是根据麻生周一原作漫画改编的真人电影,由福田雄一执导并编剧。由山崎贤人主演、桥本环奈、新井浩文和吉泽亮等共同出演,于2017年10月21日在日本上映。电影《齐木楠雄的灾难》改编自麻生周一的漫画,导演福田雄一,讲述生来就有超能力的主人公高中生齐木楠雄,每天都面临着各种灾难的日常,是一部校园喜剧 。

Video
ID : 1
Format : AVC
Format/Info : Advanced Video Codec
Format profile : [email protected]
Format settings : CABAC / 4 Ref Frames
Format settings, CABAC : Yes
Format settings, ReFrames : 4 frames
Codec ID : V_MPEG4/ISO/AVC
Duration : 1 h 37 min
Bit rate : 11.8 Mb/s
Width : 1 920 pixels
Height : 1 036 pixels
Display aspect ratio : 1.85:1
Frame rate mode : Constant
Frame rate : 23.976 (24000/1001/189150) FPS
Color space : YUV
Chroma subsampling : 4:2:0
Bit depth : 8 bits
Scan type : Progressive
Bits/(Pixel*Frame) : 0.247
Stream size : 7.97 GiB (89%)
Writing library : x264 core 129 r2245+704+36 8e61944 tMod+MixAQ [[email protected]:2:0 X86_64]
Encoding settings : cabac=1 / ref=4 / deblock=1:-3:-3 / analyse=0x3:0x133 / me=umh / subme=11 / psy=1 / fade_compensate=0.00 / psy_rd=1.05:0.10 / mixed_ref=1 / me_range=64 / chroma_me=1 / trellis=2 / 8x8dct=1 / cqm=0 / deadzone=21,11 / fast_pskip=0 / chroma_qp_offset=-3 / threads=18 / lookahead_threads=3 / sliced_threads=0 / nr=0 / decimate=0 / interlaced=0 / bluray_compat=0 / constrained_intra=0 / fgo=0 / bframes=10 / b_pyramid=2 / b_adapt=2 / b_bias=0 / direct=3 / weightb=1 / open_gop=0 / weightp=2 / keyint=250 / keyint_min=23 / scenecut=40 / intra_refresh=0 / rc=2pass / mbtree=0 / bitrate=11762 / ratetol=1.0 / qcomp=0.70 / qpmin=0 / qpmax=69 / qpstep=4 / cplxblur=20.0 / qblur=0.5 / ip_ratio=1.40 / pb_ratio=1.30 / aq=1 / aq-strength=0.90 / aq-sensitivity=10.00 / aq-ifactor=1.00 / aq-pfactor=1.00 / aq-bfactor=1.00 / aq2=0
Language : Japanese
Default : Yes
Forced : No

Audio
ID : 2
Format : DTS
Format/Info : Digital Theater Systems
Codec ID : A_DTS
Duration : 1 h 37 min
Bit rate mode : Constant
Bit rate : 1 509 kb/s
Channel(s) : 6 channels
Channel positions : Front: L C R, Side: L R, LFE
Sampling rate : 48.0 kHz
Frame rate : 93.750 FPS (512 SPF)
Bit depth : 24 bits
Compression mode : Lossy
Stream size : 1.02 GiB (11%)
Language : Japanese
Default : Yes
Forced : No

Text #1
ID : 3
Format : ASS
Codec ID : S_TEXT/ASS
Codec ID/Info : Advanced Sub Station Alpha
Duration : 1 h 36 min
Bit rate : 101 b/s
Count of elements : 1670
Compression mode : Lossless
Stream size : 72.0 KiB (0%)
Title : Simplified
Language : Chinese
Default : Yes
Forced : No

Text #2
ID : 4
Format : ASS
Codec ID : S_TEXT/ASS
Codec ID/Info : Advanced Sub Station Alpha
Duration : 1 h 36 min
Bit rate : 101 b/s
Count of elements : 1669
Compression mode : Lossless
Stream size : 71.9 KiB (0%)
Title : Traditional
Language : Chinese
Default : No
Forced : No

Menu
00:00:00.000 : en:00:00:00.000
00:08:23.711 : en:00:08:23.711
00:17:44.104 : en:00:17:44.104
00:19:00.055 : en:00:19:00.055
00:21:42.301 : en:00:21:42.301
00:29:54.834 : en:00:29:54.834
00:35:21.786 : en:00:35:21.786
00:39:01.964 : en:00:39:01.964
00:47:37.729 : en:00:47:37.729
00:50:45.167 : en:00:50:45.167
00:59:31.025 : en:00:59:31.025
01:01:29.727 : en:01:01:29.727
01:05:56.577 : en:01:05:56.577
01:10:44.907 : en:01:10:44.907
01:14:57.784 : en:01:14:57.784
01:21:35.056 : en:01:21:35.056
01:24:21.931 : en:01:24:21.931
01:33:17.133 : en:01:33:17.133





1 个附件 售价 大小 下载 时间

Psychic.Kusuo.2017.JAPANESE.1080p.BluRay.x264.DTS-WiKi.zip 0 金币 91.53K 336 次 1月前

#1楼
发帖时间:2020-09-20 14:00:41   |   回复数:1
kola13
武林盟主
感谢分享
1月前 #2楼
游客组