squallzhao
武林盟主

[2017] [日本] [剧情] [BD-1080P] 极恶非道3 Outrage.Final.Chapter.2017.JAPANESE.1080p.BluRay.x264.DTS-WiKi 8.50GB

-->

帖子完整标题:极恶非道3 Outrage.Final.Chapter.2017.JAPANESE.1080p.BluRay.x264.DTS-WiKi 8.50GB



◎译  名 极恶非道3/Outrage Coda/Outrage: Final Chapter/アウトレイジ3/全员恶人最终章(港)/极恶非道3:最终章/极恶非道最终章(台)
◎片  名 アウトレイジ最終章
◎年  代 2017
◎产  地 日本
◎类  别 剧情 / 动作 / 犯罪
◎语  言 日语,韩语,英语
◎上映日期 2017-09-09(威尼斯电影节) / 2017-10-07(日本)
◎IMDb评分 6.3/10 from 2097 users
◎IMDb链接 https://www.imdb.com/title/tt6293042/
◎豆瓣评分 7.4/10 from 18370 users
◎豆瓣链接 https://movie.douban.com/subject/26862893/
◎片  长 104分钟
◎导  演 北野武 Takeshi Kitano
◎编  剧 北野武 Takeshi Kitano
◎主  演 北野武 Takeshi Kitano
      西田敏行 Toshiyuki Nishida
      名高达男 Tatsuo Nadaka
      光石研 Ken Mitsuishi
      白龙 Hakuryu
      中村育二 Ikuji Nakamura
      盐见三省 Sansei Shiomi
      松重丰 Yutaka Matsushige
      津田宽治 Kanji Tsuda
      大杉涟 Ren Ohsugi
      原田泰造 Taizo Harada
      长谷川公彦 Kimihiko Hasegawa
      池内博之 Hiroyuki Ikeuchi
      石原和海 Kazumi Ishihara
      岸部一德 Ittoku Kishibe
      水内清光 Kiyomitsu Mizuuchi
      本宫泰风 Yasukaze Motomiya
      仁科贵 Takashi Nishina
      大森南朋 Nao Omori
      曽根悠多 Y?ta Sone
      泷正则 Pierre Taki
      山口祥行 Yoshiyuki Yamaguchi
      金田时男 Kaneda Tokio

◎标  签 北野武 | 日本 | 黑帮 | 犯罪 | 暴力 | 2017 | 剧情 | 电影

◎简  介

  枪杀刑警片冈后,大友(北野武 饰)在韩国代理人张会长(金田时男 饰)的庇护下亡命济州岛。这个远离日本江湖的极道,却因某起事件和花菱会少壮派花田(皮埃尔泷 饰)起了冲突。此时花菱会由前任会长的女婿野村(大杉涟 饰)统领,作为若头的元老西野(西田敏行 饰)则根本不买这个外行老大的账。故而,怀恨在心的野村密谋借此次“济州岛事件”除去西野,并嫁祸张会长,谁知却很快演变成互相追杀彼此首脑的大战争。战争期间,没落的山王会图谋再起,而为给小弟报仇的大友也带着市川(大森南朋 饰)等人来到东京。秉承着仁义之心的大友,将为这个利欲熏心的黑道修罗场带来一场血腥风暴……
  
  本片为北野武“极恶非道”系列三部曲的最终章。

◎获奖情况

  第41届日本电影学院奖 ?(2018)
  最佳配乐 铃木庆一
  最佳录音(提名) 久连石由文
  最佳剪辑(提名) 太田义则?/?北野武
  
  第47届鹿特丹国际电影节 ?(2018)
  亚洲电影大奖(提名) 北野武
  
  第42届报知映画赏 ?(2017)
  特别奖 北野武
  
  第1届平遥国际电影展 ?(2017)
  首映单元最受欢迎影片(提名) 北野武

Video
ID : 1
Format : AVC
Format/Info : Advanced Video Codec
Format profile : [email protected]
Format settings : CABAC / 5 Ref Frames
Format settings, CABAC : Yes
Format settings, ReFrames : 5 frames
Codec ID : V_MPEG4/ISO/AVC
Duration : 1 h 44 min
Bit rate : 10.1 Mb/s
Width : 1 920 pixels
Height : 804 pixels
Display aspect ratio : 2.40:1
Frame rate mode : Constant
Frame rate : 23.976 (24000/1001/189150) FPS
Color space : YUV
Chroma subsampling : 4:2:0
Bit depth : 8 bits
Scan type : Progressive
Bits/(Pixel*Frame) : 0.273
Stream size : 7.39 GiB (87%)
Writing library : x264 core 129 r2245+704+36 8e61944 tMod+MixAQ [[email protected]:2:0 X86_64]
Encoding settings : cabac=1 / ref=5 / deblock=1:-3:-3 / analyse=0x3:0x133 / me=umh / subme=11 / psy=1 / fade_compensate=0.00 / psy_rd=1.05:0.10 / mixed_ref=1 / me_range=64 / chroma_me=1 / trellis=2 / 8x8dct=1 / cqm=0 / deadzone=21,11 / fast_pskip=0 / chroma_qp_offset=-3 / threads=18 / lookahead_threads=3 / sliced_threads=0 / nr=0 / decimate=0 / interlaced=0 / bluray_compat=0 / constrained_intra=0 / fgo=0 / bframes=10 / b_pyramid=2 / b_adapt=2 / b_bias=0 / direct=3 / weightb=1 / open_gop=0 / weightp=2 / keyint=250 / keyint_min=23 / scenecut=40 / intra_refresh=0 / rc=2pass / mbtree=0 / bitrate=10104 / ratetol=1.0 / qcomp=0.70 / qpmin=0 / qpmax=69 / qpstep=4 / cplxblur=20.0 / qblur=0.5 / ip_ratio=1.40 / pb_ratio=1.30 / aq=1 / aq-strength=0.90 / aq-sensitivity=10.00 / aq-ifactor=1.00 / aq-pfactor=1.00 / aq-bfactor=1.00 / aq2=0
Language : Japanese
Default : Yes
Forced : No

Audio
ID : 2
Format : DTS
Format/Info : Digital Theater Systems
Codec ID : A_DTS
Duration : 1 h 44 min
Bit rate mode : Constant
Bit rate : 1 509 kb/s
Channel(s) : 6 channels
Channel positions : Front: L C R, Side: L R, LFE
Sampling rate : 48.0 kHz
Frame rate : 93.750 FPS (512 SPF)
Bit depth : 24 bits
Compression mode : Lossy
Stream size : 1.10 GiB (13%)
Language : Japanese
Default : Yes
Forced : No

Text
ID : 3
Format : ASS
Codec ID : S_TEXT/ASS
Codec ID/Info : Advanced Sub Station Alpha
Duration : 1 h 40 min
Bit rate : 93 b/s
Count of elements : 1357
Compression mode : Lossless
Stream size : 68.8 KiB (0%)
Language : Chinese
Default : Yes
Forced : No

Menu
00:00:00.000 : en:00:00:00.000
00:09:15.513 : en:00:09:15.513
00:15:54.828 : en:00:15:54.828
00:23:08.136 : en:00:23:08.136
00:28:13.775 : en:00:28:13.775
00:37:24.825 : en:00:37:24.825
00:49:30.217 : en:00:49:30.217
01:02:35.501 : en:01:02:35.501
01:11:54.101 : en:01:11:54.101
01:21:39.436 : en:01:21:39.436
01:35:38.899 : en:01:35:38.899
01:40:12.256 : en:01:40:12.256





1 个附件 售价 大小 下载 时间

Outrage.Final.Chapter.2017.JAPANESE.1080p.BluRay.x264.DTS-WiKi.zip 0 金币 86.50K 469 次 1月前

#1楼
发帖时间:2020-09-20 13:57:29   |   回复数:0
游客组