squallzhao
武林盟主

[2017] [日本] [喜剧] [BD-1080P] 恋爱回旋 Mix.2017.JAPANESE.1080p.BluRay.x264.DTS-WiKi 11.50GB

-->

帖子完整标题:恋爱回旋 Mix.2017.JAPANESE.1080p.BluRay.x264.DTS-WiKi 11.50GB



◎译  名 恋爱回旋/Mix!/Mixed Doubles/乒乓少女大逆袭(台)/乒乓情人梦(港)/混双/混合双打
◎片  名 ミックス。
◎年  代 2017
◎产  地 日本
◎类  别 喜剧 / 运动
◎语  言 日语
◎上映日期 2017-10-21(日本) / 2018-03-09(中国大陆)
◎IMDb评分 6.5/10 from 766 users
◎IMDb链接 https://www.imdb.com/title/tt6523440/
◎豆瓣评分 7.0/10 from 73554 users
◎豆瓣链接 https://movie.douban.com/subject/26972275/
◎片  长 119分钟
◎导  演 石川淳一 Jun'ichi Ishikawa
◎编  剧 古泽良太 Ryota Kosawa
◎主  演 新垣结衣 Yui Aragaki
      永山瑛太 Eita
      广末凉子 Ryoko Hirosue
      苍井优 Yu Aoi
      濑户康史 Koji Seto
      永野芽郁 Mei Nagano
      山口纱弥加 Sayaka Yamaguchi
      佐野勇斗 Sano Hayato
      远藤宪一 Ken'ichi End?
      森崎博之 Hiroyuki Morisaki
      吉田钢太郎 K?tar? Yoshida
      久间田琳加 Rinka Kumada
      生濑胜久 Katsuhisa Namase
      铃木福 Fuku Suzuki
      谷花音 Tani Kanon
      真木阳子 Yoko Maki
      小日向文世 Fumiyo Kohinata
      中村安奈 Anne Nakamura
      水谷隼 Jun Mizutani
      石川佳纯 Kasumi Ishikawa
      伊藤美诚 Mima Ito
      木造勇人 Y?to Kizukuri
      吉村真晴 Maharu Yoshimura
      浜本由惟 Yui Hamamoto
      斋藤司 Tsukasa Saito
      平泽宏宏路 Kokoro Hirasawa
      田中美佐子 Tanaka Misako
      定本枫马 Fuma Sadamoto

◎标  签 日本 | 爱情 | 励志 | 喜剧 | 乒乓球 | 运动 | 2018 | 2017

◎简  介

  富田多满子(新垣结衣 饰)的母亲是一名十分优秀的乒乓球运动员,在母亲的严厉教导下,多满子的整个童年都在天才乒乓球少女的荣光之下度过。然而,多满子却并不是真心喜爱这项运动,于是,母亲过世后,她便彻底放飞了自我,就此远离了球桌。
  
  随着时间的推移,多满子平凡的长大成为了一名OL,并且遇见了名为江岛晃彦(濑户康史 饰)的男子,两人走到了一起。然而,美梦是短暂的,第三者的出现让多满子和江岛之间的恋情画上了句号,与此同时,多满子辞掉了工作,灰头土脸的返回家乡,在那里,母亲留下的经营不善的乒乓球俱乐部等待着她的接手。

◎获奖情况

  第41届日本电影学院奖 ?(2018)
  最佳女主角(提名) 新垣结衣
  
  第5届豆瓣电影年度榜单 ?(2018)
  评分最高的日本电影(提名)

Video
ID : 1
Format : AVC
Format/Info : Advanced Video Codec
Format profile : [email protected]
Format settings : CABAC / 4 Ref Frames
Format settings, CABAC : Yes
Format settings, ReFrames : 4 frames
Codec ID : V_MPEG4/ISO/AVC
Duration : 1 h 58 min
Bit rate : 12.3 Mb/s
Width : 1 920 pixels
Height : 1 040 pixels
Display aspect ratio : 1.85:1
Frame rate mode : Constant
Frame rate : 23.976 (24000/1001/189150) FPS
Color space : YUV
Chroma subsampling : 4:2:0
Bit depth : 8 bits
Scan type : Progressive
Bits/(Pixel*Frame) : 0.258
Stream size : 10.2 GiB (89%)
Writing library : x264 core 129 r2245+704+36 8e61944 tMod+MixAQ [[email protected]:2:0 X86_64]
Encoding settings : cabac=1 / ref=4 / deblock=1:-3:-3 / analyse=0x3:0x133 / me=umh / subme=11 / psy=1 / fade_compensate=0.00 / psy_rd=1.05:0.10 / mixed_ref=1 / me_range=64 / chroma_me=1 / trellis=2 / 8x8dct=1 / cqm=0 / deadzone=21,11 / fast_pskip=0 / chroma_qp_offset=-3 / threads=18 / lookahead_threads=3 / sliced_threads=0 / nr=0 / decimate=0 / interlaced=0 / bluray_compat=0 / constrained_intra=0 / fgo=0 / bframes=10 / b_pyramid=2 / b_adapt=2 / b_bias=0 / direct=3 / weightb=1 / open_gop=0 / weightp=2 / keyint=250 / keyint_min=23 / scenecut=40 / intra_refresh=0 / rc=2pass / mbtree=0 / bitrate=12344 / ratetol=1.0 / qcomp=0.70 / qpmin=0 / qpmax=69 / qpstep=4 / cplxblur=20.0 / qblur=0.5 / ip_ratio=1.40 / pb_ratio=1.30 / aq=1 / aq-strength=0.90 / aq-sensitivity=10.00 / aq-ifactor=1.00 / aq-pfactor=1.00 / aq-bfactor=1.00 / aq2=0
Language : Japanese
Default : Yes
Forced : No

Audio
ID : 2
Format : DTS
Format/Info : Digital Theater Systems
Codec ID : A_DTS
Duration : 1 h 58 min
Bit rate mode : Constant
Bit rate : 1 509 kb/s
Channel(s) : 6 channels
Channel positions : Front: L C R, Side: L R, LFE
Sampling rate : 48.0 kHz
Frame rate : 93.750 FPS (512 SPF)
Bit depth : 24 bits
Compression mode : Lossy
Stream size : 1.25 GiB (11%)
Language : Japanese
Default : Yes
Forced : No

Text #1
ID : 3
Format : UTF-8
Codec ID : S_TEXT/UTF8
Codec ID/Info : UTF-8 Plain Text
Duration : 1 h 54 min
Bit rate : 32 b/s
Count of elements : 1196
Stream size : 27.1 KiB (0%)
Title : Simplified
Language : Chinese
Default : Yes
Forced : No

Text #2
ID : 4
Format : UTF-8
Codec ID : S_TEXT/UTF8
Codec ID/Info : UTF-8 Plain Text
Duration : 1 h 54 min
Bit rate : 32 b/s
Count of elements : 1196
Stream size : 27.1 KiB (0%)
Title : Traditional
Language : Chinese
Default : No
Forced : No

Menu
00:00:00.000 : en:00:00:00.000
00:02:36.489 : en:00:02:36.489
00:07:47.675 : en:00:07:47.675
00:13:30.434 : en:00:13:30.434
00:20:58.215 : en:00:20:58.215
00:26:47.147 : en:00:26:47.147
00:31:34.142 : en:00:31:34.142
00:40:48.404 : en:00:40:48.404
00:47:50.325 : en:00:47:50.325
00:53:21.781 : en:00:53:21.781
00:59:58.052 : en:00:59:58.052
01:08:43.410 : en:01:08:43.410
01:16:15.153 : en:01:16:15.153
01:21:32.846 : en:01:21:32.846
01:28:16.207 : en:01:28:16.207
01:37:19.083 : en:01:37:19.083
01:40:58.051 : en:01:40:58.051
01:45:19.020 : en:01:45:19.020
01:51:32.268 : en:01:51:32.268
01:54:55.013 : en:01:54:55.013





1 个附件 售价 大小 下载 时间

Mix.2017.JAPANESE.1080p.BluRay.x264.DTS-WiKi.zip 0 金币 58.92K 371 次 1月前

#1楼
发帖时间:2020-09-20 13:53:48   |   回复数:1
kola13
武林盟主
感谢分享
1月前 #2楼
游客组