squallzhao
武林盟主

[2017] [其他] [其他] [BD-1080P] 鬼網 Ghost.Net.2017.1080p.BluRay.x264-WiKi 8.66GB

-->

帖子完整标题:鬼網 Ghost.Net.2017.1080p.BluRay.x264-WiKi 8.66GB



◎译  名 鬼网/Ghost Net
◎片  名 鬼網
◎年  代 2017
◎产  地 中国香港
◎类  别 悬疑 / 惊悚 / 恐怖
◎语  言 粤语
◎上映日期 2017-11-23(中国香港)
◎IMDb评分 3.9/10 from 107 users
◎IMDb链接 https://www.imdb.com/title/tt7736104/
◎豆瓣评分 5.0/10 from 971 users
◎豆瓣链接 https://movie.douban.com/subject/26995550/
◎片  长 98分钟
◎导  演 黄国强 KK Wong / 黄国辉 Kowk Fai Huang / 游达志 Tat-Chi Yau
◎编  剧 杜瑞榕 Frances To
◎主  演 陈家乐 Carlos Chan
      麦子乐 Bryant Ji-Lok Mak
      郭奕芯 Ashina Kwok
      鲍康儿 Cherry Pau
      许雅婷 Kabby Hui
      曾淑雅 Jumbo Tsang
      张建声 Justin Cheung
      徐浩昌 Eric Tsui
      赵咏瑶 Kimi Chiu
      蒋祖曼 Joman Chiang
      简淑儿 Jessica Kan

◎标  签 恐怖 | 香港 | 惊悚 | 恐怖电影 | 香港电影 | 分段式 | 2017 | 悬疑

◎简  介

  单纯天真的少女陈慧(郭奕芯 饰)被卷入了艾玛(鲍康儿 饰)和其男友的纠缠不清的关系之中难以脱身。绮雯(许雅婷 饰)希望男友家洛(麦子乐 饰)能对自己用情专一一生不变,于是打算在身上纹一个拥有催情改运功能的纹身。谁知道纹身师阿森(张建声 饰)和老婆珍妮(蒋祖曼 饰)将绮雯当成了他们的猎物,绮雯被卷入了一场精心策划的阴谋之中还不自知。
  
  打小就喜欢听各种恐怖故事传说的大学生忠仔(陈家乐 饰)带着妹妹小茹(简淑儿 饰)来到当地著名的鬼屋打算一探究竟,谁知道真的撞上了一对已经腐烂多时的尸体,敏敏之中,一条隐秘的线索将种种异象串联到了一起。

Video
ID : 1
Format : AVC
Format/Info : Advanced Video Codec
Format profile : [email protected]
Format settings : CABAC / 5 Ref Frames
Format settings, CABAC : Yes
Format settings, ReFrames : 5 frames
Codec ID : V_MPEG4/ISO/AVC
Duration : 1 h 38 min
Bit rate : 11.1 Mb/s
Width : 1 920 pixels
Height : 804 pixels
Display aspect ratio : 2.40:1
Frame rate mode : Constant
Frame rate : 24.000 FPS
Color space : YUV
Chroma subsampling : 4:2:0
Bit depth : 8 bits
Scan type : Progressive
Bits/(Pixel*Frame) : 0.298
Stream size : 7.61 GiB (88%)
Writing library : x264 core 142 r2431+42 c69a006 tMod [[email protected] X86_64]
Encoding settings : cabac=1 / ref=5 / deblock=1:-3:-3 / analyse=0x3:0x133 / me=umh / subme=11 / psy=1 / fade_compensate=0.00 / psy_rd=1.00:0.05 / mixed_ref=1 / me_range=64 / chroma_me=1 / trellis=2 / 8x8dct=1 / cqm=0 / deadzone=21,11 / fast_pskip=0 / chroma_qp_offset=-1 / threads=12 / lookahead_threads=3 / sliced_threads=0 / nr=0 / decimate=0 / interlaced=0 / bluray_compat=0 / constrained_intra=0 / fgo=0 / bframes=10 / b_pyramid=2 / b_adapt=2 / b_bias=0 / direct=3 / weightb=1 / open_gop=0 / weightp=2 / keyint=250 / keyint_min=24 / scenecut=40 / intra_refresh=0 / rc_lookahead=120 / rc=crf / mbtree=0 / crf=16.5000 / qcomp=0.70 / qpmin=0:0:0 / qpmax=69:69:69 / qpstep=4 / vbv_maxrate=50000 / vbv_bufsize=50000 / crf_max=0.0 / nal_hrd=none / filler=0 / ip_ratio=1.40 / pb_ratio=1.30 / aq=1:0.80 / aq-sensitivity=10.00 / aq-factor=1.00:1.00:1.00 / aq2=0 / aq3=0
Language : Chinese
Default : Yes
Forced : No
Color range : Limited
Matrix coefficients : BT.709

Audio #1
ID : 2
Format : AC-3
Format/Info : Audio Coding 3
Codec ID : A_AC3
Duration : 1 h 38 min
Bit rate mode : Constant
Bit rate : 640 kb/s
Channel(s) : 6 channels
Channel positions : Front: L C R, Side: L R, LFE
Sampling rate : 48.0 kHz
Frame rate : 31.250 FPS (1536 SPF)
Bit depth : 16 bits
Compression mode : Lossy
Stream size : 451 MiB (5%)
Title : Cantonese
Language : Chinese
Service kind : Complete Main
Default : Yes
Forced : No

Audio #2
ID : 3
Format : AC-3
Format/Info : Audio Coding 3
Codec ID : A_AC3
Duration : 1 h 38 min
Bit rate mode : Constant
Bit rate : 640 kb/s
Channel(s) : 6 channels
Channel positions : Front: L C R, Side: L R, LFE
Sampling rate : 48.0 kHz
Frame rate : 31.250 FPS (1536 SPF)
Bit depth : 16 bits
Compression mode : Lossy
Stream size : 451 MiB (5%)
Title : Mandarin
Language : Chinese
Service kind : Complete Main
Default : No
Forced : No

Text #1
ID : 4
Format : UTF-8
Codec ID : S_TEXT/UTF8
Codec ID/Info : UTF-8 Plain Text
Title : CHS
Language : Chinese
Default : No
Forced : No

Text #2
ID : 5
Format : UTF-8
Codec ID : S_TEXT/UTF8
Codec ID/Info : UTF-8 Plain Text
Title : CHT
Language : Chinese
Default : No
Forced : No

Menu
00:00:00.000 : en:00:00:00.000
00:06:57.792 : en:00:06:57.792
00:16:03.333 : en:00:16:03.333
00:24:53.583 : en:00:24:53.583
00:34:34.250 : en:00:34:34.250
00:40:11.542 : en:00:40:11.542
00:50:35.250 : en:00:50:35.250
00:56:55.042 : en:00:56:55.042
01:06:08.417 : en:01:06:08.417
01:14:00.542 : en:01:14:00.542
01:21:10.667 : en:01:21:10.667
01:29:13.208 : en:01:29:13.208





1 个附件 售价 大小 下载 时间

Ghost.Net.2017.1080p.BluRay.x264-WiKi.zip 0 金币 88.01K 273 次 1月前

#1楼
发帖时间:2020-09-20 13:48:01   |   回复数:0
游客组