squallzhao
武林盟主

[2017] [日本] [动作] [BD-1080P] 钢之炼金术师 Fullmetal.Alchemist.2017.JAPANESE.1080p.BluRay.x264.DTS-WiKi 12.00GB

-->

帖子完整标题:钢之炼金术师 Fullmetal.Alchemist.2017.JAPANESE.1080p.BluRay.x264.DTS-WiKi 12.00GB



◎译  名 钢之炼金术师/Fullmetal Alchemist/钢之炼金术师 真人版
◎片  名 鋼の錬金術師
◎年  代 2017
◎产  地 日本
◎类  别 动作
◎语  言 日语
◎上映日期 2017-10-25(东京电影节) / 2017-12-01(日本)
◎IMDb评分 5.2/10 from 18440 users
◎IMDb链接 https://www.imdb.com/title/tt5607028/
◎豆瓣评分 4.7/10 from 6853 users
◎豆瓣链接 https://movie.douban.com/subject/26761256/
◎片  长 134分钟
◎导  演 曾利文彦 Fumihiko Sori
◎编  剧 曾利文彦 Fumihiko Sori / 宮本武史 / 荒川弘 Hiromu Arakawa
◎主  演 山田凉介 Ry?suke Yamada
      本田翼 Tsubasa Honda
      藤冈靛 Tatsuo Dean Fujioka
      佐藤隆太 Ry?ta Sat?
      大泉洋 Y? ?izumi
      松雪泰子 Yasuko Matsuyuki
      本乡奏多 Kanata Hong?
      莲佛美沙子 Misako Renbutsu
      内山信二 Shinji Uchiyama
      石丸谦二郎 Kenjir? Ishimaru
      小日向文世 Fumiyo Kohinata
      国村隼 Jun Kunimura
      夏菜 Natsuna
      水石亚飞梦 Atomu Mizuishi
      维克·米格诺纳 Vic Mignogna
      平田薫 Kaoru Hirata

◎标  签 日本 | 漫改 | 漫画改编 | 真人化 | 日本电影 | 2017 | 日影 | 山田凉介

◎简  介

  悲伤的爱德华和阿尔冯斯两兄弟,试图利用炼金术中最大的禁忌——人体炼成术救活撒手人寰的母亲,谁知却遭遇巨大的灾难。失去身体的阿尔冯斯,其灵魂被封禁在铠甲中,爱德华则以自己的右臂和左脚为代价,迫使弟弟止步冥国门前。许多年后,爱德华(山田凉介 饰)成长为这个国家中最年轻的钢之炼金术师,他与弟弟(水石亚飞梦 配音)上下一心,共同奔跑在寻找贤者之石的道路上。与此同时,神秘的人造人拉丝特(松雪泰子 饰)、恩维(本乡奏多 饰)盘桓这个国家的角落,她们策划者恐怖的勾当,一时间上空阴云密布……
  
  本片根据荒川弘的原作漫画改编。

Video
ID : 1
Format : AVC
Format/Info : Advanced Video Codec
Format profile : [email protected]
Format settings : CABAC / 5 Ref Frames
Format settings, CABAC : Yes
Format settings, ReFrames : 5 frames
Codec ID : V_MPEG4/ISO/AVC
Duration : 2 h 13 min
Bit rate : 11.3 Mb/s
Width : 1 920 pixels
Height : 816 pixels
Display aspect ratio : 2.35:1
Frame rate mode : Constant
Frame rate : 23.976 (24000/1001/189150) FPS
Color space : YUV
Chroma subsampling : 4:2:0
Bit depth : 8 bits
Scan type : Progressive
Bits/(Pixel*Frame) : 0.302
Stream size : 10.6 GiB (88%)
Writing library : x264 core 129 r2245+704+36 8e61944 tMod+MixAQ [[email protected]:2:0 X86_64]
Encoding settings : cabac=1 / ref=5 / deblock=1:-3:-3 / analyse=0x3:0x133 / me=umh / subme=11 / psy=1 / fade_compensate=0.00 / psy_rd=1.05:0.10 / mixed_ref=1 / me_range=64 / chroma_me=1 / trellis=2 / 8x8dct=1 / cqm=0 / deadzone=21,11 / fast_pskip=0 / chroma_qp_offset=-3 / threads=18 / lookahead_threads=3 / sliced_threads=0 / nr=0 / decimate=0 / interlaced=0 / bluray_compat=0 / constrained_intra=0 / fgo=0 / bframes=10 / b_pyramid=2 / b_adapt=2 / b_bias=0 / direct=3 / weightb=1 / open_gop=0 / weightp=2 / keyint=250 / keyint_min=23 / scenecut=40 / intra_refresh=0 / rc=2pass / mbtree=0 / bitrate=11332 / ratetol=1.0 / qcomp=0.70 / qpmin=0 / qpmax=69 / qpstep=4 / cplxblur=20.0 / qblur=0.5 / ip_ratio=1.40 / pb_ratio=1.30 / aq=1 / aq-strength=0.90 / aq-sensitivity=10.00 / aq-ifactor=1.00 / aq-pfactor=1.00 / aq-bfactor=1.00 / aq2=0
Language : Japanese
Default : Yes
Forced : No

Audio
ID : 2
Format : DTS
Format/Info : Digital Theater Systems
Codec ID : A_DTS
Duration : 2 h 13 min
Bit rate mode : Constant
Bit rate : 1 509 kb/s
Channel(s) : 6 channels
Channel positions : Front: L C R, Side: L R, LFE
Sampling rate : 48.0 kHz
Frame rate : 93.750 FPS (512 SPF)
Bit depth : 24 bits
Compression mode : Lossy
Stream size : 1.41 GiB (12%)
Language : Japanese
Default : Yes
Forced : No

Text #1
ID : 3
Format : UTF-8
Codec ID : S_TEXT/UTF8
Codec ID/Info : UTF-8 Plain Text
Duration : 2 h 6 min
Bit rate : 27 b/s
Count of elements : 1220
Stream size : 25.3 KiB (0%)
Title : English
Language : English
Default : Yes
Forced : Yes

Text #2
ID : 4
Format : UTF-8
Codec ID : S_TEXT/UTF8
Codec ID/Info : UTF-8 Plain Text
Duration : 2 h 6 min
Bit rate : 26 b/s
Count of elements : 1228
Stream size : 24.7 KiB (0%)
Title : Simplified
Language : Chinese
Default : No
Forced : No

Text #3
ID : 5
Format : UTF-8
Codec ID : S_TEXT/UTF8
Codec ID/Info : UTF-8 Plain Text
Duration : 2 h 6 min
Bit rate : 32 b/s
Count of elements : 1228
Stream size : 29.8 KiB (0%)
Title : Traditional
Language : Chinese
Default : No
Forced : No

Menu
00:00:00.000 : en:00:00:00.000
00:06:42.276 : en:00:06:42.276
00:19:11.567 : en:00:19:11.567
00:26:41.433 : en:00:26:41.433
00:35:23.162 : en:00:35:23.162
00:47:11.328 : en:00:47:11.328
00:55:32.370 : en:00:55:32.370
01:04:24.819 : en:01:04:24.819
01:17:54.586 : en:01:17:54.586
01:25:32.585 : en:01:25:32.585
01:33:52.626 : en:01:33:52.626
01:49:45.203 : en:01:49:45.203
01:59:13.312 : en:01:59:13.312
02:08:04.676 : en:02:08:04.676
02:13:46.518 : en:02:13:46.518





1 个附件 售价 大小 下载 时间

Fullmetal.Alchemist.2017.JAPANESE.1080p.BluRay.x264.DTS-WiKi.zip 0 金币 61.52K 322 次 1月前

#1楼
发帖时间:2020-09-20 13:45:22   |   回复数:0
游客组