squallzhao
武林盟主

[2017] [日本] [剧情] [BD-1080P] 她不知道名字的那些鸟儿 Birds.Without.Names.2017.JAPANESE.1080p.BluRay.x264.DTS-WiKi 9.30GB

-->

帖子完整标题:她不知道名字的那些鸟儿 Birds.Without.Names.2017.JAPANESE.1080p.BluRay.x264.DTS-WiKi 9.30GB



◎译  名 她不知道名字的那些鸟儿/Birds Without Names/她不知道那些鸟的名字(台)/未闻鸟名(豆友译名)/鸟兽行(港)
◎片  名 彼女がその名を知らない鳥たち
◎年  代 2017
◎产  地 日本
◎类  别 剧情 / 悬疑
◎语  言 日语
◎上映日期 2017-09-07(多伦多电影节) / 2017-10-28(日本)
◎IMDb评分 6.5/10 from 572 users
◎IMDb链接 https://www.imdb.com/title/tt6493644/
◎豆瓣评分 6.9/10 from 18463 users
◎豆瓣链接 https://movie.douban.com/subject/26928304/
◎片  长 123分钟
◎导  演 白石和弥 Kazuya Shiraishi
◎编  剧 浅野妙子 Taeko Asano / 沼田真帆香留 Mahokaru Numata
◎主  演 苍井优 Yu Aoi
      阿部隆史 Sadao Abe
      松坂桃李 T?ri Matsuzaka
      村川绘梨 Eri Murakawa
      赤堀雅秋 Masaaki Akahori
      赤泽瑟丽 Seri Akaba
      中岛书 Sh? Nakajima
      竹野内丰 Yutaka Takenouchi

◎标  签 日本 | 爱情 | 悬疑 | 人性 | 剧情 | 2017 | 犯罪 | 情色

◎简  介

  北原十和子(苍井优 饰)同名为阵治(阿部隆史 饰)的男子过着同居的生活。虽然居住在同一屋檐下,但十和子和阵治之间却并非情侣关系。十和子厌恶阵治的粗俗和懦弱,而即便被十和子辱骂嫌弃,阵治却依然深深的为她着迷。十和子有过一段不堪回首的恋情,前男友黑崎俊一(竹野内丰 饰)是一个彻头彻尾的渣男,不仅利用十和子的身体,还在分手之时将十和子打成重伤。
  
  一次偶然中,十和子结识了名为水岛真(松坂桃李 饰)的男子,一来二去之间,两人之间产生了不伦的感情。然而,水岛真也只不过是贪恋十和子的肉体罢了。警察找到了十和子,向她询问失踪的黑崎的下落。

◎获奖情况

  第41届日本电影学院奖 ?(2018)
  最佳女主角 苍井优
  
  第12届亚洲电影大奖 ?(2018)
  最佳女主角(提名) 苍井优
  
  第42届报知映画赏 ?(2017)
  最佳女主角 苍井优

Video
ID : 1
Format : AVC
Format/Info : Advanced Video Codec
Format profile : [email protected]
Format settings : CABAC / 5 Ref Frames
Format settings, CABAC : Yes
Format settings, ReFrames : 5 frames
Codec ID : V_MPEG4/ISO/AVC
Duration : 2 h 3 min
Bit rate : 10.0 Mb/s
Width : 1 920 pixels
Height : 804 pixels
Display aspect ratio : 2.40:1
Frame rate mode : Constant
Frame rate : 23.976 (24000/1001/189150) FPS
Color space : YUV
Chroma subsampling : 4:2:0
Bit depth : 8 bits
Scan type : Progressive
Bits/(Pixel*Frame) : 0.270
Stream size : 8.63 GiB (93%)
Writing library : x264 core 129 r2245+704+36 8e61944 tMod+MixAQ [[email protected]:2:0 X86_64]
Encoding settings : cabac=1 / ref=5 / deblock=1:-3:-3 / analyse=0x3:0x133 / me=umh / subme=11 / psy=1 / fade_compensate=0.00 / psy_rd=1.05:0.10 / mixed_ref=1 / me_range=64 / chroma_me=1 / trellis=2 / 8x8dct=1 / cqm=0 / deadzone=21,11 / fast_pskip=0 / chroma_qp_offset=-3 / threads=18 / lookahead_threads=3 / sliced_threads=0 / nr=0 / decimate=0 / interlaced=0 / bluray_compat=0 / constrained_intra=0 / fgo=0 / bframes=10 / b_pyramid=2 / b_adapt=2 / b_bias=0 / direct=3 / weightb=1 / open_gop=0 / weightp=2 / keyint=250 / keyint_min=23 / scenecut=40 / intra_refresh=0 / rc=2pass / mbtree=0 / bitrate=10010 / ratetol=1.0 / qcomp=0.70 / qpmin=0 / qpmax=69 / qpstep=4 / cplxblur=20.0 / qblur=0.5 / ip_ratio=1.40 / pb_ratio=1.30 / aq=1 / aq-strength=0.90 / aq-sensitivity=10.00 / aq-ifactor=1.00 / aq-pfactor=1.00 / aq-bfactor=1.00 / aq2=0
Language : Japanese
Default : Yes
Forced : No

Audio
ID : 2
Format : DTS
Format/Info : Digital Theater Systems
Codec ID : A_DTS
Duration : 2 h 3 min
Bit rate mode : Constant
Bit rate : 768 kb/s
Channel(s) : 6 channels
Channel positions : Front: L C R, Side: L R, LFE
Sampling rate : 48.0 kHz
Frame rate : 93.750 FPS (512 SPF)
Bit depth : 24 bits
Compression mode : Lossy
Stream size : 679 MiB (7%)
Language : Japanese
Default : Yes
Forced : No

Text #1
ID : 3
Format : UTF-8
Codec ID : S_TEXT/UTF8
Codec ID/Info : UTF-8 Plain Text
Duration : 1 h 59 min
Bit rate : 31 b/s
Count of elements : 1232
Stream size : 27.4 KiB (0%)
Title : Simplified
Language : Chinese
Default : Yes
Forced : No

Text #2
ID : 4
Format : UTF-8
Codec ID : S_TEXT/UTF8
Codec ID/Info : UTF-8 Plain Text
Duration : 1 h 59 min
Bit rate : 31 b/s
Count of elements : 1232
Stream size : 27.4 KiB (0%)
Title : Traditional
Language : Chinese
Default : No
Forced : No

Menu
00:00:00.000 : en:00:00:00.000
00:11:50.793 : en:00:11:50.793
00:25:31.446 : en:00:25:31.446
00:36:16.716 : en:00:36:16.716
00:45:10.916 : en:00:45:10.916
00:54:00.487 : en:00:54:00.487
01:02:32.832 : en:01:02:32.832
01:12:49.782 : en:01:12:49.782
01:24:04.622 : en:01:24:04.622
01:32:14.654 : en:01:32:14.654
01:41:46.266 : en:01:41:46.266
02:00:02.403 : en:02:00:02.403





1 个附件 售价 大小 下载 时间

Birds.Without.Names.2017.JAPANESE.1080p.BluRay.x264.DTS-WiKi.zip 0 金币 94.45K 385 次 1月前

#1楼
发帖时间:2020-09-20 13:43:40   |   回复数:0
游客组