squallzhao
武林盟主

[2017] [韩国] [剧情] [BD-1080P] 骗子 The.Swindlers.2017.KOREAN.1080p.BluRay.x264-WiKi 10.99GB

-->

帖子完整标题:骗子 The.Swindlers.2017.KOREAN.1080p.BluRay.x264-WiKi 10.99GB



◎译  名 骗子/Conman/The Swindlers/骗中骗(港)/骗徒(台)
◎片  名 ?
◎年  代 2017
◎产  地 韩国
◎类  别 剧情 / 犯罪
◎语  言 韩语
◎上映日期 2017-11-22(韩国)
◎IMDb评分 6.6/10 from 1469 users
◎IMDb链接 https://www.imdb.com/title/tt7243686/
◎豆瓣评分 7.5/10 from 31152 users
◎豆瓣链接 https://movie.douban.com/subject/26770697/
◎片  长 117分钟
◎导  演 张昌原 Chang-won Jang
◎编  剧 张昌原 Chang-won Jang
◎主  演 玄彬 Hyun Bin
      刘智泰 Ji-tae Yu
      朴圣雄 Seong-Woong Park
      裴晟祐 Sung-Woo Bae
      崔德门 Dok-mun Choi
      林珍娜 Nana
      安世河 Se-ha Ahn
      许成泰 Seong-tae Heo
      柳圣贤 Ryoo Seong-hyeon
      崔日华 Il-hwa Choi
       金溙勋 Kim Tae-hoon
      廉东宪 Dong-hun Yum
      郑东奎 Dong-gyu Jeong
      崔宏一 Hong-il Choi
      金子英 Kim Ja-yeong
      周锡泰 Suk-tae Joo
      郑敏圣 Min-sung Jung
      韩哲宇 Han Chul-woo
      全宪泰 Jeon Heon-tae
      李载求 Jae-goo Lee
      柳正浩 Yoo Jung-ho
      孙炳旭 Son Byeong-wook
      郑镇荣 Jin-yeong Jeong
      车顺裴 Cha Soon-bae
      吴泰景 Tae-kyung Oh
      陈善圭 Seon-kyu Jin
      Oh Tae-kyeong
      姜德宗 Deuk-jong Kang
      朴尚赫 Park Sang-hyeok
      郑美景 Mi-kyung Jeong
      严志满 Ji-man Eom
       金太煥 Kim Tae-hwan

◎标  签 韩国 | 犯罪 | 反转 | 悬疑 | 骗局 | 诈骗 | 剧情 | 高智商

◎简  介

  为了逮捕涉及4万亿韩元、造成3万名受害者的稀世大骗子,诈骗犯(玄彬饰)和检察官展开较量的诈骗犯罪。玄彬将在片中饰演设下完美骗局的诈骗犯黄智成,是一位专挑诈骗犯行骗的天才诈骗犯;刘智泰在片中饰演劣性检察官朴熙洙,为抓住稀世大骗子而制定计划招揽黄智成,表面正义内里却是对权力有无尽欲望的人。电影新颖、烧脑的故事令人耳目一新,而两位演技派演员的互相飙戏也引发众多期待。电影计划于2016年下半年拍摄。

◎获奖情况

  第54届百想艺术大赏 ?(2018)
  电影类最佳新人女演员(提名) 林珍娜

Video
ID : 1
Format : AVC
Format/Info : Advanced Video Codec
Format profile : [email protected]
Format settings : CABAC / 5 Ref Frames
Format settings, CABAC : Yes
Format settings, ReFrames : 5 frames
Codec ID : V_MPEG4/ISO/AVC
Duration : 1 h 56 min
Bit rate : 12.8 Mb/s
Width : 1 920 pixels
Height : 804 pixels
Display aspect ratio : 2.40:1
Frame rate mode : Constant
Frame rate : 24.000 FPS
Color space : YUV
Chroma subsampling : 4:2:0
Bit depth : 8 bits
Scan type : Progressive
Bits/(Pixel*Frame) : 0.346
Stream size : 10.5 GiB (95%)
Writing library : x264 core 129 r2245 bc13772
Encoding settings : cabac=1 / ref=5 / deblock=1:-3:-3 / analyse=0x3:0x133 / me=umh / subme=11 / psy=1 / psy_rd=1.05:0.05 / mixed_ref=1 / me_range=64 / chroma_me=1 / trellis=2 / 8x8dct=1 / cqm=0 / deadzone=21,11 / fast_pskip=0 / chroma_qp_offset=-3 / threads=12 / lookahead_threads=2 / sliced_threads=0 / nr=0 / decimate=1 / interlaced=0 / bluray_compat=0 / constrained_intra=0 / bframes=8 / b_pyramid=2 / b_adapt=2 / b_bias=0 / direct=3 / weightb=1 / open_gop=0 / weightp=2 / keyint=250 / keyint_min=24 / scenecut=40 / intra_refresh=0 / rc_lookahead=60 / rc=2pass / mbtree=1 / bitrate=12818 / ratetol=1.0 / qcomp=0.60 / qpmin=0 / qpmax=69 / qpstep=4 / cplxblur=20.0 / qblur=0.5 / vbv_maxrate=40000 / vbv_bufsize=30000 / nal_hrd=none / ip_ratio=1.40 / aq=1:0.65
Language : English
Default : Yes
Forced : No

Audio
ID : 2
Format : AC-3
Format/Info : Audio Coding 3
Codec ID : A_AC3
Duration : 1 h 56 min
Bit rate mode : Constant
Bit rate : 640 kb/s
Channel(s) : 6 channels
Channel positions : Front: L C R, Side: L R, LFE
Sampling rate : 48.0 kHz
Frame rate : 31.250 FPS (1536 SPF)
Bit depth : 16 bits
Compression mode : Lossy
Stream size : 536 MiB (5%)
Language : Korean
Service kind : Complete Main
Default : Yes
Forced : No

Text #1
ID : 3
Format : UTF-8
Codec ID : S_TEXT/UTF8
Codec ID/Info : UTF-8 Plain Text
Duration : 1 h 51 min
Bit rate : 43 b/s
Count of elements : 1420
Stream size : 35.2 KiB (0%)
Title : 港式简体
Language : Chinese
Default : Yes
Forced : No

Text #2
ID : 4
Format : UTF-8
Codec ID : S_TEXT/UTF8
Codec ID/Info : UTF-8 Plain Text
Duration : 1 h 51 min
Bit rate : 42 b/s
Count of elements : 1421
Stream size : 35.2 KiB (0%)
Title : 港式繁体
Language : Chinese
Default : No
Forced : No

Text #3
ID : 5
Format : UTF-8
Codec ID : S_TEXT/UTF8
Codec ID/Info : UTF-8 Plain Text
Duration : 1 h 51 min
Bit rate : 45 b/s
Count of elements : 1651
Stream size : 37.4 KiB (0%)
Title : 台式简体
Language : Chinese
Default : No
Forced : No

Text #4
ID : 6
Format : UTF-8
Codec ID : S_TEXT/UTF8
Codec ID/Info : UTF-8 Plain Text
Duration : 1 h 51 min
Bit rate : 45 b/s
Count of elements : 1651
Stream size : 37.4 KiB (0%)
Title : 台式繁体
Language : Chinese
Default : No
Forced : No





1 个附件 售价 大小 下载 时间

The.Swindlers.2017.KOREAN.1080p.BluRay.x264-WiKi.zip 0 金币 56.42K 994 次 1月前

#1楼
发帖时间:2020-09-20 13:39:25   |   回复数:1
kola13
武林盟主
感谢分享
1月前 #2楼
游客组