squallzhao
武林盟主

[2017] [其他] [剧情] [BD-1080P] 血觀音 The.Bold.the.Corrupt.and.the.Beautiful.2017.CHINESE.1080p.BluRay.x264-WiKi 1

-->

帖子完整标题:血觀音 The.Bold.the.Corrupt.and.the.Beautiful.2017.CHINESE.1080p.BluRay.x264-WiKi 10.67GB



◎译  名 血观音/The Bold, the Corrupt, and the Beautiful/修罗花
◎片  名 血觀音
◎年  代 2017
◎产  地 中国台湾
◎类  别 剧情 / 悬疑
◎语  言 汉语普通话,粤语,闽南语,日语
◎上映日期 2017-10-15(釜山电影节) / 2017-11-24(中国台湾)
◎IMDb评分 7.3/10 from 2266 users
◎IMDb链接 https://www.imdb.com/title/tt7479784/
◎豆瓣评分 8.4/10 from 273817 users
◎豆瓣链接 https://movie.douban.com/subject/27113517/
◎片  长 112分钟
◎导  演 杨雅喆 Ya-che Yang
◎编  剧 杨雅喆 Ya-che Yang
◎主  演 惠英红 Kara Wai Ying Hung
      吴可熙 Ke-Hsi Wu
      文淇 Vicky Chen
      柯佳嬿 Alice Ko
      陈莎莉 Sally Chan
      丁强 Chiang Ting
      刘尚谦 Shang-Chien Liu
      林志儒 Chih-ju Lin
      王月 Moon Wang
      温贞菱 Chuen Wen
      王伟六 Weiliu Wang
      陈珮骐 Carolyn Chan
      尹昭德 Chao-te Yin
      大久保麻梨子 Mariko Okubo
      巫书维 Shu Wei Wu
      颜毓麟 Keennny Yen
      刘越逖 Yue-Ti Liu
      傅子纯 Tzu-chun Fu
      陈武康 Wu-Kang Chen
      施名帅 Ming-Shuai Shih
      秀兰玛雅 Showlen Maya
      应蔚民 Wei-min Ying
      李铨 Peter Li
      陈子见 Retina
      张扬 Yang Chang
      王伟六 Wei-liu Wang

◎标  签 女性 | 人性 | 台湾 | 悬疑 | 犯罪 | 剧情 | 政治 | 金马

◎简  介

  《血观音》描述在女人组成的棠府里,住着3位不同世代但一样懂人心的女性,由棠夫人(惠英红饰)主持大局,穿梭权贵间,靠着高超手腕与柔软身段,在复杂的政商关系中生存取利;个性如刺猬般的大女儿棠宁(吴可熙饰)为求母亲肯定,勉力配合;乖巧的小女儿棠真(文淇饰)多半静静观察,唯母命是从。直到某天,棠家亲密友人惨遭灭门事件爆发,三人各自被牵扯其中,一向以大局为重的棠夫人,为了守护一切,费尽心机,却让三人走向不同的命运。

◎获奖情况

  第54届台北金马影展 ?(2017)
  金马奖最佳剧情片
  金马奖最佳导演(提名) 杨雅喆
  金马奖最佳女主角 惠英红
  金马奖最佳女配角 文淇
  金马奖最佳原著剧本(提名) 杨雅喆
  金马奖最佳美术设计(提名) 蔡珮玲
  金马奖最佳造型设计(提名) 王佳惠
  观众票选最佳影片
  
  第37届香港电影金像奖 ?(2018)
  最佳两岸华语电影(提名)
  
  第20届台北电影节 ?(2018)
  台北电影奖最佳剧情长片(提名) 杨雅喆
  台北电影奖最佳编剧奖 杨雅喆
  台北电影奖最佳女配角奖 文淇
  台北电影奖最佳剪辑奖 陈俊宏
  
  第18届华语电影传媒大奖 ?(2018)
  最佳女主角 惠英红
  
  第5届豆瓣电影年度榜单 ?(2018)
  评分最高的华语电影(提名)
  最受关注的非院线电影(提名)
  
  第4届豆瓣电影年度榜单 ?(2017)
  年度华语独立佳作(提名)

Video
ID : 1
Format : AVC
Format/Info : Advanced Video Codec
Format profile : [email protected]
Format settings : CABAC / 4 Ref Frames
Format settings, CABAC : Yes
Format settings, ReFrames : 4 frames
Codec ID : V_MPEG4/ISO/AVC
Duration : 1 h 52 min
Bit rate : 13.0 Mb/s
Width : 1 920 pixels
Height : 1 080 pixels
Display aspect ratio : 16:9
Frame rate mode : Constant
Frame rate : 24.000 FPS
Color space : YUV
Chroma subsampling : 4:2:0
Bit depth : 8 bits
Scan type : Progressive
Bits/(Pixel*Frame) : 0.261
Stream size : 9.95 GiB (93%)
Writing library : x264 core 142 r2431+42 c69a006 tMod [[email protected] X86_64]
Encoding settings : cabac=1 / ref=4 / deblock=1:-3:-3 / analyse=0x3:0x133 / me=umh / subme=11 / psy=1 / fade_compensate=0.00 / psy_rd=1.00:0.05 / mixed_ref=1 / me_range=64 / chroma_me=1 / trellis=2 / 8x8dct=1 / cqm=0 / deadzone=21,11 / fast_pskip=0 / chroma_qp_offset=-1 / threads=12 / lookahead_threads=2 / sliced_threads=0 / nr=0 / decimate=0 / interlaced=0 / bluray_compat=0 / constrained_intra=0 / fgo=0 / bframes=8 / b_pyramid=2 / b_adapt=2 / b_bias=0 / direct=3 / weightb=1 / open_gop=0 / weightp=2 / keyint=250 / keyint_min=24 / scenecut=40 / intra_refresh=0 / rc_lookahead=120 / rc=2pass / mbtree=0 / bitrate=13000 / ratetol=1.0 / qcomp=0.70 / qpmin=0:0:0 / qpmax=69:69:69 / qpstep=4 / cplxblur=20.0 / qblur=0.5 / vbv_maxrate=50000 / vbv_bufsize=50000 / nal_hrd=none / filler=0 / ip_ratio=1.40 / pb_ratio=1.30 / aq=1:0.85 / aq-sensitivity=10.00 / aq-factor=1.00:1.00:1.00 / aq2=0 / aq3=0
Language : Chinese
Default : Yes
Forced : No
Color range : Limited
Matrix coefficients : BT.709

Audio
ID : 2
Format : AC-3
Format/Info : Audio Coding 3
Codec ID : A_AC3
Duration : 1 h 52 min
Bit rate mode : Constant
Bit rate : 640 kb/s
Channel(s) : 6 channels
Channel positions : Front: L C R, Side: L R, LFE
Sampling rate : 48.0 kHz
Frame rate : 31.250 FPS (1536 SPF)
Bit depth : 16 bits
Compression mode : Lossy
Stream size : 513 MiB (5%)
Language : Chinese
Service kind : Complete Main
Default : Yes
Forced : No

Text #1
ID : 3
Format : UTF-8
Codec ID : S_TEXT/UTF8
Codec ID/Info : UTF-8 Plain Text
Title : CHS
Language : Chinese
Default : No
Forced : No

Text #2
ID : 4
Format : UTF-8
Codec ID : S_TEXT/UTF8
Codec ID/Info : UTF-8 Plain Text
Title : CHT
Language : Chinese
Default : No
Forced : No

Menu
00:00:00.000 : en:00:00:00.000
00:09:56.167 : en:00:09:56.167
00:18:53.750 : en:00:18:53.750
00:26:36.833 : en:00:26:36.833
00:37:01.625 : en:00:37:01.625
00:45:42.208 : en:00:45:42.208
00:54:54.917 : en:00:54:54.917
01:05:51.042 : en:01:05:51.042
01:15:00.125 : en:01:15:00.125
01:23:42.875 : en:01:23:42.875
01:32:53.458 : en:01:32:53.458
01:41:51.750 : en:01:41:51.750





1 个附件 售价 大小 下载 时间

The.Bold.the.Corrupt.and.the.Beautiful.2017.CHINESE.1080p.BluRay.x264-WiKi.zip 0 金币 54.84K 448 次 1月前

#1楼
发帖时间:2020-09-20 13:33:19   |   回复数:1
ulix
武林高手
thanks                                           ..
1月前 #2楼
游客组