squallzhao
武林盟主

[2017] [日本] [剧情] [BD-1080P] 老师!我可以喜欢你吗?/先生!我可以喜欢你吗 My.Teacher.2017.JAPANESE.1080p.BluRay.x264.DTS-WiKi 9.00G

-->

帖子完整标题:老师!我可以喜欢你吗?/先生!我可以喜欢你吗 My.Teacher.2017.JAPANESE.1080p.BluRay.x264.DTS-WiKi 9.00GB



◎译  名 老师!我可以喜欢你吗?/先生!我可以喜欢你吗(台)/老师!、、、我可以喜欢你吗?(港)
◎片  名 先生!、、、好きになってもいいですか?
◎年  代 2017
◎产  地 日本
◎类  别 剧情 / 爱情
◎语  言 日语
◎上映日期 2017-10-28(日本)
◎IMDb评分 6.4/10 from 821 users
◎IMDb链接 https://www.imdb.com/title/tt6190198/
◎豆瓣评分 6.6/10 from 28366 users
◎豆瓣链接 https://movie.douban.com/subject/26901234/
◎片  长 113分钟
◎导  演 三木孝浩 Takahiro Miki
◎编  剧 河原和音 Kazune Kawahara / 冈田麿里 Mari Okada
◎主  演 生田斗真 T?ma Ikuta
      广濑铃 Suzu Hirose
      龙星凉 Ryo Ry?sei
      森川葵 Aoi Morikawa
      伊藤健太郎 Kentaro Ito
      中村伦也 Tomoya Nakamura
      比嘉爱未 Manami Higa
      八木亚希子 Akiko Yagi
      森本治行 Leo Morimoto
      樱井圭佑 Saukurai Keisuke

◎标  签 日本 | 师生恋 | 爱情 | 校园 | 青春 | 纯爱 | 少女心 | 漫画改编

◎简  介

  响(广濑铃 饰)答应帮助好友千草递情书给关矢老师(中村伦也 饰),哪知道在误打误撞之中将情书放在了伊藤老师(生田斗真 饰)的鞋柜里。伊藤老师是学校里出了名的冷面杀手,平日里看起来毫无感情,但响却在偶然之中发现了他热情善良的一面。实际上,伊藤也曾有过一段刻骨铭心的爱恋,但这段恋情结束的过于惨烈,让他对爱情彻底失去了信心。
  
  响渐渐喜欢上了伊藤老师,她用自己的温柔和天真融化了伊藤老师内心里的坚冰,两人终于互诉衷肠开始了交往。然而,伊藤老师冷冰冰的态度还是让响常常处于不安之中,不仅如此,伊藤老师曾经的恋人美崎来到了响所在的学校成为了实习老师。

Video
ID : 1
Format : AVC
Format/Info : Advanced Video Codec
Format profile : [email protected]
Format settings : CABAC / 5 Ref Frames
Format settings, CABAC : Yes
Format settings, ReFrames : 5 frames
Codec ID : V_MPEG4/ISO/AVC
Duration : 1 h 52 min
Bit rate : 9 904 kb/s
Width : 1 920 pixels
Height : 806 pixels
Display aspect ratio : 2.40:1
Frame rate mode : Constant
Frame rate : 23.976 (24000/1001/189150) FPS
Color space : YUV
Chroma subsampling : 4:2:0
Bit depth : 8 bits
Scan type : Progressive
Bits/(Pixel*Frame) : 0.267
Stream size : 7.80 GiB (87%)
Writing library : x264 core 129 r2245+704+36 8e61944 tMod+MixAQ [[email protected]:2:0 X86_64]
Encoding settings : cabac=1 / ref=5 / deblock=1:-3:-3 / analyse=0x3:0x133 / me=umh / subme=11 / psy=1 / fade_compensate=0.00 / psy_rd=1.05:0.10 / mixed_ref=1 / me_range=64 / chroma_me=1 / trellis=2 / 8x8dct=1 / cqm=0 / deadzone=21,11 / fast_pskip=0 / chroma_qp_offset=-3 / threads=18 / lookahead_threads=3 / sliced_threads=0 / nr=0 / decimate=0 / interlaced=0 / bluray_compat=0 / constrained_intra=0 / fgo=0 / bframes=10 / b_pyramid=2 / b_adapt=2 / b_bias=0 / direct=3 / weightb=1 / open_gop=0 / weightp=2 / keyint=250 / keyint_min=23 / scenecut=40 / intra_refresh=0 / rc=2pass / mbtree=0 / bitrate=9904 / ratetol=1.0 / qcomp=0.70 / qpmin=0 / qpmax=69 / qpstep=4 / cplxblur=20.0 / qblur=0.5 / ip_ratio=1.40 / pb_ratio=1.30 / aq=1 / aq-strength=0.90 / aq-sensitivity=10.00 / aq-ifactor=1.00 / aq-pfactor=1.00 / aq-bfactor=1.00 / aq2=0
Language : Japanese
Default : Yes
Forced : No

Audio
ID : 2
Format : DTS
Format/Info : Digital Theater Systems
Codec ID : A_DTS
Duration : 1 h 52 min
Bit rate mode : Constant
Bit rate : 1 509 kb/s
Channel(s) : 6 channels
Channel positions : Front: L C R, Side: L R, LFE
Sampling rate : 48.0 kHz
Frame rate : 93.750 FPS (512 SPF)
Bit depth : 24 bits
Compression mode : Lossy
Stream size : 1.19 GiB (13%)
Language : Japanese
Default : Yes
Forced : No

Text #1
ID : 3
Format : ASS
Codec ID : S_TEXT/ASS
Codec ID/Info : Advanced Sub Station Alpha
Duration : 1 h 52 min
Bit rate : 61 b/s
Count of elements : 1274
Compression mode : Lossless
Stream size : 50.8 KiB (0%)
Title : Simplified
Default : Yes
Forced : No

Text #2
ID : 4
Format : ASS
Codec ID : S_TEXT/ASS
Codec ID/Info : Advanced Sub Station Alpha
Duration : 1 h 52 min
Bit rate : 61 b/s
Count of elements : 1275
Compression mode : Lossless
Stream size : 50.8 KiB (0%)
Title : Traditional
Language : Chinese
Default : No
Forced : No

Menu
00:00:00.000 : en:00:00:00.000
00:10:42.725 : en:00:10:42.725
00:20:19.801 : en:00:20:19.801
00:29:25.638 : en:00:29:25.638
00:42:04.355 : en:00:42:04.355
00:52:14.089 : en:00:52:14.089
01:02:57.899 : en:01:02:57.899
01:11:37.292 : en:01:11:37.292
01:22:37.786 : en:01:22:37.786
01:34:47.223 : en:01:34:47.223
01:41:38.675 : en:01:41:38.675
01:46:07.068 : en:01:46:07.068
01:52:44.591 : en:01:52:44.591





1 个附件 售价 大小 下载 时间

My.Teacher.2017.JAPANESE.1080p.BluRay.x264.DTS-WiKi.zip 0 金币 91.43K 357 次 1月前

#1楼
发帖时间:2020-09-20 13:30:22   |   回复数:0
游客组